ML
     
  Уважаемый Гость!
Вы можете поддержать проект и зарегистрироваться у наших партнеров - онлайн-стратегия MyLands. При регистрации в игре Вы получите код, который сможете активировать после регистрации на pirat.ca и получить 1000 дублонов.

Ваш код:
c3360d664ceb84802c84b88ed062a5d134e2ba97
 
     

Король и Воробей. Пеле и Гарринча - Герои Футбола [2011 г., Футбол, IPTV]

Ответить на тему
 
Автор
Сообщение

Пост 29-Окт-2013 12:39

[Q] 

ribi

-Король и Воробей. Пеле и Гарринча - Герои Футбола-- Год выпуска: 2011 г.
Вид спорта: Футбол
Продолжительность: 00:47:04
Комментарий: Профессиональный (одноголосый, закадровый)
Язык комментариев: русский
Автор рипа: VM26
Описание: Фильм о Короле футбола Пеле (Эдсон Арантес ду Насименту) и об одном из величайших футболистов в истории мирового футбола Манэ Гарринче (Мануэл Франсиско дос Сантос).-Качество видео: IPTV
Контейнер: TS
Видео кодек: MPEG2
Аудио кодек: MPEG
Видео: 704 x 576 (1.333) at 25.000 fps 2898 Кбит/сек
Аудио: 2 канала, 48,0 КГц 192 Кбит/сек
Формат : MPEG-TS
Размер файла : 1,07 Гбайт
Продолжительность : 47 м.
Режим общего битрейта : Переменный
Общий поток : 3253 Кбит/сек
Видео
Идентификатор : 330 (0x14A)
Идентификатор меню : 1 (0x1)
Формат : MPEG Video
Версия формата : Version 2
Профиль формата : [email protected]
Параметр BVOP формата : Да
Параметр матрицы формата : Выборочная
Параметр GOP формата : M=3, N=24
Идентификатор кодека : 2
Продолжительность : 47 м.
Вид битрейта : Переменный
Битрейт : 2898 Кбит/сек
Максимальный битрейт : 15,0 Мбит/сек
Ширина : 704 пикселя
Высота : 576 пикселей
Соотношение сторон : 4:3
Частота кадров : 25,000 кадров/сек
Стандарт вещания : PAL
Цветовое пространство : YUV
Субдискретизация насыщенности : 4:2:0
Битовая глубина : 8 бит
Тип развёртки : Чересстрочная
Порядок развёртки : Верхнее поле первое
Метод сжатия : С потерями
Бит/(Пиксели*Кадры) : 0.286
Размер потока : 976 Мбайт (89%)
Аудио
Идентификатор : 418 (0x1A2)
Идентификатор меню : 1 (0x1)
Формат : MPEG Audio
Версия формата : Version 1
Профиль формата : Layer 2
Идентификатор кодека : 4
Продолжительность : 47 м.
Вид битрейта : Постоянный
Битрейт : 192 Кбит/сек
Каналы : 2 канала
Частота : 48,0 КГц
Метод сжатия : С потерями
Задержка видео : -34 мс.
Размер потока : 64,6 Мбайт (6%)
Язык : Russian
Язык, дополнительно : Clean effects
Меню
Идентификатор : 109 (0x6D)
Идентификатор меню : 1 (0x1)
Продолжительность : 47 м.
Список : 330 (0x14A) (MPEG Video) / 418 (0x1A2) (MPEG Audio, Russian)
Язык : / Russian
Название сервиса : євЮ Хбвм ЪвЮ
Поставщик сервиса : HTB+
Тип сервиса : digital television
Запись с ТВ канала "Кто Есть Кто" - эфир 03.09.2011
Download / Скачать

Хотите скачать бесплатно? Зарегистрируйтесь на сайте (ссылка на регистрацию). Pirat.ca - самый быстрый торрент трекер в рунете!

Как скачивать  ·   Что такое торрент  ·   Рейтинг и ограничения



Последний раз редактировалось: ribi (2013-10-29 12:44), всего редактировалось 1 раз

viktor41

Шкипер

Пост 29-Окт-2013 12:40 (спустя 1 минута)

[Q] 

ribi, Спасибо ! Автору респект!!! Супер!
[Профиль]  [ЛС] 

Пост 29-Окт-2013 12:41 (спустя 59 секунд)

Топик был перенесен из форума Спортивные фильмы и передачи (Трюм) в форум Футбольные матчи
ribi
 

Дядя Витя

53983

Пост 29-Окт-2013 17:28 (спустя 4 часа)

[Q] 

Ну что ж, Пеле как Пеле, объясняю Зине я,
Ест Пеле крем-брюле вместе с Жаирзинио ....
(с)
Пиратка рулез!!!

_________________
?
[Профиль]  [ЛС] 

petrovich58

Корсар

Пост 30-Окт-2013 03:09 (спустя 9 часов)

[Q] 

441281Ну что ж, Пеле как Пеле, объясняю Зине я,
Ест Пеле крем-брюле вместе с Жаирзинио ....
(с)
Раздающему респект! Я у бабушки тем летом
Был Пеле, Стрельцовым, Нетто.
На шоссе у остановки
Проводил я тренировки
Лови бочку
[Профиль]  [ЛС] 

petrovich58

Корсар

Пост 31-Дек-2013 03:23 (спустя 2 месяца 1 день)

[Q] 

Пиратка рулит! Всех пиратов с наступающим Новым годом! cl
[Профиль]  [ЛС] 
Показать сообщения:    
Ответить на тему

Текущее время: Сегодня 10:03

Часовой пояс: GMT + 4



Вы не можете начинать темы
Вы не можете отвечать на сообщения
Вы не можете редактировать свои сообщения
Вы не можете удалять свои сообщения
Вы не можете голосовать в опросах
Вы не можете прикреплять файлы к сообщениям
Вы не можете скачивать файлы

▼ Вниз