ML
     
  Уважаемый Гость!
Вы можете поддержать проект и зарегистрироваться у наших партнеров - онлайн-стратегия MyLands. При регистрации в игре Вы получите код, который сможете активировать после регистрации на pirat.ca и получить 1000 дублонов.

Ваш код:
193c38d0130f05c24de871678ea3ac181461757d
 
     

Чемпионат Мира 2014 / FIFA 2014 / Бразилия – Хорватия / Группа A. 1-й тур [13.06.2014, Спорт 1 HD, Футбол, H.264, 50fps, HDTVRip/720p]

Ответить на тему
 
Автор
Сообщение

Пост 27-Июн-2014 00:57

[Q] 

UcrusPazzo

Чемпионат Мира 2014 / FIFA 2014
Бразилия – Хорватия / Группа A. 1-й тур
-Год выпуска: 13.06.2014
Вид спорта: Футбол
Участники: Бразилия – Хорватия
Продолжительность: 02:41:45
Комментарий превью: русский (Антонян, Осин)
Комментарий матча: русский (Стогниенко, Брилев)-Автор рипа / записи: Striker
-Описание:
13 июня 2014 года, пятница. 00:00 мск
Группа A. 1-й тур
Стадион: Арена Сан-Паулу - Коринтианс (Сан-Паулу, Бразилия)
Главный судья: Юити Нисимура (Токио, Япония)-Качество видео: HDTVRip
Контейнер: MKV
Видео кодек: H.264
Аудио кодек: AC3
Видео: 3975 Кбит/сек; 1280*720 (16:9); в 50,000 кадров/сек; 0.086 Бит/(Пиксели*Кадры); AVC
Аудио: 192 Кбит/сек; 48,0 КГц; 16 бит; 2 канала; АС-3
Бразилия
Вратари
1 Джефферсон Ботафого
12 Жулио Сезар Торонто
22 Виктор Атлетико Минейро
Защитники
2 Дани Алвес Барселона
3 Тиаго Силва (к) Пари Сен-Жермен
4 Давид Луис Челси[2]
6 Марсело Реал Мадрид
13 Данте Бавария
14 Максвелл Пари Сен-Жермен
15 Энрике Наполи
23 Майкон Рома
Полузащитники
5 Фернандиньо Манчестер Сити
8 Паулиньо Тоттенхэм Хотспур
11 Оскар Челси
16 Рамирес Челси
17 Луис Густаво Вольфсбург
18 Эрнанес Интернационале
19 Виллиан Челси
Нападающие
7 Халк Зенит (Санкт-Петербург)
9 Фред Флуминенсе
10 Неймар Барселона
20 Бернард Шахтёр (Донецк)
21 Жо Атлетико Минейро
Главный тренер Луис Фелипе Сколари Бразилия-Хорватия
Вратари
1 Стипе Плетикоса Ростов
12 Оливер Зеленика Локомотива
23 Даниел Субашич Монако
Защитники
2 Шиме Врсалько Дженоа
3 Даниел Праньич Панатинаикос
5 Ведран Чорлука Локомотив (Москва)
6 Деян Ловрен Саутгемптон
11 Дарио Срна (к) Шахтёр (Донецк)
13 Гордон Шильденфельд Панатинаикос
21 Домагой Вида Динамо (Киев)
Полузащитники
4 Иван Перишич Вольфсбург
7 Иван Ракитич Севилья
8 Огнен Вукоевич Динамо (Киев)
10 Лука Модрич Реал Мадрид
14 Марцело Брозович Динамо (Загреб)
15 Милан Бадель Гамбург
19 Саммир Хетафе
20 Матео Ковачич Интернационале
Нападающие
9 Никица Елавич Халл Сити
16 Анте Ребич Фиорентина
17 Марио Манджукич Бавария
18 Ивица Олич Вольфсбург
22 Эдуардо Шахтёр (Донецк)
Главный тренер Нико Ковач Хорватия
Общее
Уникальный идентификатор : 218490827681110412112124905382630876080 (0xA45FCD81B64EED0AA55AD2753D7F63B0)
Формат : Matroska
Версия формата : Version 4 / Version 2
Размер файла : 4,80 Гбайт
Продолжительность : 2 ч. 41 м.
Общий поток : 4251 Кбит/сек
Дата кодирования : UTC 2014-06-12 22:50:36
Программа кодирования : mkvmerge v7.0.0 ('Where We Going') 64bit built on Jun 9 2014 15:16:27
Библиотека кодирования : libebml v1.3.0 + libmatroska v1.4.1
Видео
Идентификатор : 1
Формат : AVC
Формат/Информация : Advanced Video Codec
Профиль формата : [email protected]
Параметр CABAC формата : Да
Параметр ReFrames формата : 4 кадра
Параметр GOP формата : M=2, N=15
Идентификатор кодека : V_MPEG4/ISO/AVC
Продолжительность : 2 ч. 41 м.
Битрейт : 3975 Кбит/сек
Ширина : 1280 пикселей
Высота : 720 пикселей
Соотношение сторон : 16:9
Режим частоты кадров : Постоянный
Частота кадров : 50,000 кадров/сек
Цветовое пространство : YUV
Субдискретизация насыщенности : 4:2:0
Битовая глубина : 8 бит
Тип развёртки : Прогрессивная
Бит/(Пиксели*Кадры) : 0.086
Размер потока : 4,49 Гбайт (93%)
Default : Да
Forced : Нет
Основные цвета : BT.709
Характеристики трансфера : BT.709
Коэффициенты матрицы : BT.709
DURATION : 02:41:45.080000000
NUMBER_OF_FRAMES : 485254
NUMBER_OF_BYTES : 4920753785
_STATISTICS_WRITING_APP : mkvmerge v7.0.0 ('Where We Going') 64bit built on Jun 9 2014 15:16:27
_STATISTICS_WRITING_DATE_UTC : 2014-06-12 22:50:36
_STATISTICS_TAGS : BPS DURATION NUMBER_OF_FRAMES NUMBER_OF_BYTES
Аудио
Идентификатор : 2
Формат : AC-3
Формат/Информация : Audio Coding 3
Расширение режима : CM (complete main)
Параметр Endianness формата : Big
Идентификатор кодека : A_AC3
Продолжительность : 2 ч. 41 м.
Вид битрейта : Постоянный
Битрейт : 192 Кбит/сек
Каналы : 2 канала
Расположение каналов : Front: L R
Частота : 48,0 КГц
Битовая глубина : 16 бит
Метод сжатия : С потерями
Размер потока : 222 Мбайт (5%)
Язык : Russian
Default : Да
Forced : Нет
DURATION : 02:41:45.084000000
NUMBER_OF_FRAMES : 303280
NUMBER_OF_BYTES : 232919040
_STATISTICS_WRITING_APP : mkvmerge v7.0.0 ('Where We Going') 64bit built on Jun 9 2014 15:16:27
_STATISTICS_WRITING_DATE_UTC : 2014-06-12 22:50:36
_STATISTICS_TAGS : BPS DURATION NUMBER_OF_FRAMES NUMBER_OF_BYTES
Download / Скачать

Хотите скачать бесплатно? Зарегистрируйтесь на сайте (ссылка на регистрацию). Pirat.ca - самый быстрый торрент трекер в рунете!

Как скачивать  ·   Что такое торрент  ·   Рейтинг и ограничения

Reno-19

420

Пост 25-Окт-2014 17:10 (спустя 3 месяца 28 дней)

[Q] 

Сидов маловато.... Всем качать!!!
[Профиль]  [ЛС] 
Показать сообщения:    
Ответить на тему

Текущее время: Сегодня 18:05

Часовой пояс: GMT + 4



Вы не можете начинать темы
Вы не можете отвечать на сообщения
Вы не можете редактировать свои сообщения
Вы не можете удалять свои сообщения
Вы не можете голосовать в опросах
Вы не можете прикреплять файлы к сообщениям
Вы не можете скачивать файлы

▼ Вниз