ML
     
  Уважаемый Гость!
Вы можете поддержать проект и зарегистрироваться у наших партнеров - онлайн-стратегия MyLands. При регистрации в игре Вы получите код, который сможете активировать после регистрации на pirat.ca и получить 1000 дублонов.

Ваш код:
fe4e93b754a7c2b306fcfc8bc32532ea1cf59d3b
 
     

Чемпионат Мира 2014 / FIFA 2014 / Мексика - Камерун / Группа A. 1-й тур [13.06.2014, Спорт 1 HD, Футбол, H.264, 50fps, HDTVRip/720p]

Ответить на тему
 
Автор
Сообщение

Пост 27-Июн-2014 01:37

[Q] 

UcrusPazzo

Чемпионат Мира 2014 / FIFA 2014
Мексика - Камерун / Группа A. 1-й тур
-Год выпуска: 13.06.2014
Вид спорта: Футбол
Участники: Мексика - Камерун
Продолжительность: 01:58:56
Комментарий: русский (Юрий Розанов)-Автор рипа / записи: Striker
-Описание:
13 июня 2014 года, пятница. 20:00 мск
Группа A. 1-й тур
Стадион: Арена дас Дунас (Натал, Бразилия)
Главный судья: Уилмар Ролдан Перес (Ремедиос, Колумбия)-Качество видео: HDTVRip
Контейнер: MKV
Видео кодек: H.264
Аудио кодек: AC3
Видео: 3964 Кбит/сек; 1280*720 (16:9); в 50,000 кадров/сек; 0.086 Бит/(Пиксели*Кадры); AVC
Аудио: 192 Кбит/сек; 48,0 КГц; 16 бит; 2 канала; АС-3
Мексика
Вратари
1 Хосе Корона Крус Асуль
12 Альфредо Талавера Толука
13 Гильермо Очоа Аяччо
Защитники
2 Франсиско Хавьер Родригес Америка
3 Карлос Сальсидо Тигрес
4 Рафаэль Маркес (к) Леон
5 Диего Рейес Порту
7 Мигель Лайюн Америка
15 Эктор Морено Эспаньол
18 Андрес Гуардадо Байер 04
22 Пауль Агилар Америка
Полузащитники
6 Эктор Эррера Порту
8 Марко Фабиан Крус Асуль
16 Мигель Анхель Понсе[3] Толука
17 Исаак Брисуэла Толука
20 Хавьер Акино[4] Вильярреал
21 Карлос Пенья Леон
23 Хуан Хосе Васкес Леон
Нападающие
9 Рауль Хименес Америка
10 Джовани дос Сантос Вильярреал
11 Алан Пулидо Тигрес
14 Хавьер Эрнандес Манчестер Юнайтед
19 Орибе Перальта Сантос Лагуна
Главный тренер Мигель Эррера Мексика-Камерун
Вратари
1 Лоик Феджу Котон Спорт
16 Шарль Итанж Коньяспор
23 Самми Н’Джок Фетхиеспор
Защитники
2 Бенуа Ассу-Экотто Куинз Парк Рейнджерс
3 Николя Н’Кулу Марсель
4 Седрик Джёгуэ Котон Спорт
5 Дани Нункё Бешикташ
12 Анри Бедимо Лион
14 Орельен Шеджу Галатасарай
22 Аллан Ньом Гранада
Полузащитники
6 Алекс Сонг Барселона
7 Ландри Н’Гемо Бордо
11 Жан Макун Ренн
17 Стефан Мбиа Севилья
18 Эйонг Эно Антальяспор
20 Эдгар Салли Ланс
21 Жоэль Матип Шальке 04
Нападающие
8 Бенжамин Муканджо Нанси
9 Самюэль Это’о (к) Челси
10 Венсан Абубакар Лорьян
13 Эрик Шупо-Мотинг Майнц
15 Пьер Вебо Фенербахче
19 Фабрис Олинга Зюлте-Варегем
Главный тренер Фолькер Финке Германия
Общее
Уникальный идентификатор : 181341636029490920747961123219610520878 (0x886D20F270927E4295CBC820CC0FCD2E)
Формат : Matroska
Версия формата : Version 4 / Version 2
Размер файла : 3,52 Гбайт
Продолжительность : 1 ч. 58 м.
Общий поток : 4240 Кбит/сек
Дата кодирования : UTC 2014-06-13 18:27:55
Программа кодирования : mkvmerge v7.0.0 ('Where We Going') 64bit built on Jun 9 2014 15:16:27
Библиотека кодирования : libebml v1.3.0 + libmatroska v1.4.1
Видео
Идентификатор : 1
Формат : AVC
Формат/Информация : Advanced Video Codec
Профиль формата : [email protected]
Параметр CABAC формата : Да
Параметр ReFrames формата : 4 кадра
Параметр GOP формата : M=2, N=15
Идентификатор кодека : V_MPEG4/ISO/AVC
Продолжительность : 1 ч. 58 м.
Битрейт : 3964 Кбит/сек
Ширина : 1280 пикселей
Высота : 720 пикселей
Соотношение сторон : 16:9
Режим частоты кадров : Постоянный
Частота кадров : 50,000 кадров/сек
Цветовое пространство : YUV
Субдискретизация насыщенности : 4:2:0
Битовая глубина : 8 бит
Тип развёртки : Прогрессивная
Бит/(Пиксели*Кадры) : 0.086
Размер потока : 3,29 Гбайт (93%)
Default : Да
Forced : Нет
Основные цвета : BT.709
Характеристики трансфера : BT.709
Коэффициенты матрицы : BT.709
DURATION : 01:58:55.760000000
NUMBER_OF_FRAMES : 356788
NUMBER_OF_BYTES : 3607730275
_STATISTICS_WRITING_APP : mkvmerge v7.0.0 ('Where We Going') 64bit built on Jun 9 2014 15:16:27
_STATISTICS_WRITING_DATE_UTC : 2014-06-13 18:27:55
_STATISTICS_TAGS : BPS DURATION NUMBER_OF_FRAMES NUMBER_OF_BYTES
Аудио
Идентификатор : 2
Формат : AC-3
Формат/Информация : Audio Coding 3
Расширение режима : CM (complete main)
Параметр Endianness формата : Big
Идентификатор кодека : A_AC3
Продолжительность : 1 ч. 58 м.
Вид битрейта : Постоянный
Битрейт : 192 Кбит/сек
Каналы : 2 канала
Расположение каналов : Front: L R
Частота : 48,0 КГц
Битовая глубина : 16 бит
Метод сжатия : С потерями
Размер потока : 163 Мбайт (5%)
Язык : Russian
Default : Да
Forced : Нет
DURATION : 01:58:55.740000000
NUMBER_OF_FRAMES : 222991
NUMBER_OF_BYTES : 171257088
_STATISTICS_WRITING_APP : mkvmerge v7.0.0 ('Where We Going') 64bit built on Jun 9 2014 15:16:27
_STATISTICS_WRITING_DATE_UTC : 2014-06-13 18:27:55
_STATISTICS_TAGS : BPS DURATION NUMBER_OF_FRAMES NUMBER_OF_BYTES
Download / Скачать

Хотите скачать бесплатно? Зарегистрируйтесь на сайте (ссылка на регистрацию). Pirat.ca - самый быстрый торрент трекер в рунете!

Как скачивать  ·   Что такое торрент  ·   Рейтинг и ограничения

Показать сообщения:    
Ответить на тему

Текущее время: Сегодня 14:26

Часовой пояс: GMT + 4



Вы не можете начинать темы
Вы не можете отвечать на сообщения
Вы не можете редактировать свои сообщения
Вы не можете удалять свои сообщения
Вы не можете голосовать в опросах
Вы не можете прикреплять файлы к сообщениям
Вы не можете скачивать файлы

▼ Вниз