ML
     
  Уважаемый Гость!
Вы можете поддержать проект и зарегистрироваться у наших партнеров - онлайн-стратегия MyLands. При регистрации в игре Вы получите код, который сможете активировать после регистрации на pirat.ca и получить 1000 дублонов.

Ваш код:
c3360d664ceb84802c84b88ed062a5d134e2ba97
 
     

Чемпионат Мира 2014 / FIFA 2014 / Испания – Голландия (Нидерланды) / Группа В. 1-й тур [13.06.2014, Спорт 1 HD, Футбол, H.264, 50fps, HDTVRip/720p]

Ответить на тему
 
Автор
Сообщение

Пост 28-Июн-2014 19:48

[Q] 

UcrusPazzo

Чемпионат Мира 2014 / FIFA 2014
Испания – Голландия (Нидерланды) / Группа В. 1-й тур
-Год выпуска: 13.06.2014
Вид спорта: Футбол
Участники: Испания – Голландия (Нидерланды)
Продолжительность: 01:55:01
Комментарий: русский (Роман Трушечкин)-Автор рипа / записи: Striker
-Описание:
13 июня 2014 года, пятница. 23:00 мск
Группа B. 1-й тур
Стадион: Арена Фонте-Нова - Отавиу Мангабэйра (Салвадор, Бразилия)
Главный судья: Никола Риццоли (Болонья, Италия)-Качество видео: HDTVRip
Контейнер: MKV
Видео кодек: H.264
Аудио кодек: AC3
Видео: 3977 Кбит/сек; 1280*720 (16:9); в 50,000 кадров/сек; 0.086 Бит/(Пиксели*Кадры); AVC
Аудио: 192 Кбит/сек; 48,0 КГц; 16 бит; 2 канала; АС-3
Испания
Вратари
1 Икер Касильяс (к) Реал Мадрид
12 Давид Де Хеа Манчестер Юнайтед
23 Пепе Рейна Наполи
Защитники
2 Рауль Альбиоль Наполи
3 Жерар Пике Барселона
5 Хуанфран Атлетико Мадрид
15 Серхио Рамос Реал Мадрид
18 Жорди Альба Барселона
22 Сесар Аспиликуэта Челси
Полузащитники
4 Хави Мартинес Бавария
6 Андрес Иньеста Барселона
8 Хави Барселона
10 Сеск Фабрегас Барселона[5]
13 Хуан Мата Манчестер Юнайтед
14 Хаби Алонсо Реал Мадрид
16 Серхио Бускетс Барселона
17 Коке Атлетико Мадрид
20 Санти Касорла Арсенал
21 Давид Сильва Манчестер Сити
Нападающие
7 Давид Вилья Атлетико Мадрид[6]
9 Фернандо Торрес Челси
11 Педро Родригес Барселона
19 Диего Коста Атлетико Мадрид
Главный тренер Висенте Дель Боске Испания-Нидерланды
Вратари
1 Яспер Силлессен Аякс
22 Мишел Ворм Суонси Сити
23 Тим Крул Ньюкасл Юнайтед
Защитники
2 Рон Влар Астон Вилла
3 Стефан де Врей Фейеноорд
4 Бруну Мартинс Инди Фейеноорд
5 Дейли Блинд Аякс
7 Дэрил Янмат Фейеноорд
12 Паул Верхаг Аугсбург
13 Джоэл Велтман Аякс
14 Теренс Конголо Фейеноорд
Полузащитники
6 Найджел де Йонг Милан
8 Джонатан де Гузман Суонси Сити
10 Уэсли Снейдер Галатасарай
11 Арьен Роббен Бавария
16 Йорди Класи Фейеноорд
18 Лерой Фер Норвич Сити
20 Джорджиньо Вейналдум ПСВ
21 Мемфис Депай ПСВ
Нападающие
9 Робин ван Перси (к) Манчестер Юнайтед
15 Дирк Кёйт Фенербахче
17 Джермейн Ленс Динамо (Киев)
19 Клас-Ян Хюнтелар Шальке 04
Главный тренер Луи ван Гал Нидерланды
Общее
Уникальный идентификатор : 191575941441089664387079495708352857698 (0x90202F29572F820BB3812DB84DB64662)
Формат : Matroska
Версия формата : Version 4 / Version 2
Размер файла : 3,42 Гбайт
Продолжительность : 1 ч. 55 м.
Общий поток : 4253 Кбит/сек
Дата кодирования : UTC 2014-06-13 21:20:19
Программа кодирования : mkvmerge v7.0.0 ('Where We Going') 64bit built on Jun 9 2014 15:16:27
Библиотека кодирования : libebml v1.3.0 + libmatroska v1.4.1
Видео
Идентификатор : 1
Формат : AVC
Формат/Информация : Advanced Video Codec
Профиль формата : [email protected]
Параметр CABAC формата : Да
Параметр ReFrames формата : 4 кадра
Параметр GOP формата : M=2, N=15
Идентификатор кодека : V_MPEG4/ISO/AVC
Продолжительность : 1 ч. 55 м.
Битрейт : 3977 Кбит/сек
Ширина : 1280 пикселей
Высота : 720 пикселей
Соотношение сторон : 16:9
Режим частоты кадров : Постоянный
Частота кадров : 50,000 кадров/сек
Цветовое пространство : YUV
Субдискретизация насыщенности : 4:2:0
Битовая глубина : 8 бит
Тип развёртки : Прогрессивная
Бит/(Пиксели*Кадры) : 0.086
Размер потока : 3,19 Гбайт (93%)
Default : Да
Forced : Нет
Основные цвета : BT.709
Характеристики трансфера : BT.709
Коэффициенты матрицы : BT.709
DURATION : 01:55:00.960000000
NUMBER_OF_FRAMES : 345048
NUMBER_OF_BYTES : 3500582366
_STATISTICS_WRITING_APP : mkvmerge v7.0.0 ('Where We Going') 64bit built on Jun 9 2014 15:16:27
_STATISTICS_WRITING_DATE_UTC : 2014-06-13 21:20:19
_STATISTICS_TAGS : BPS DURATION NUMBER_OF_FRAMES NUMBER_OF_BYTES
Аудио
Идентификатор : 2
Формат : AC-3
Формат/Информация : Audio Coding 3
Расширение режима : CM (complete main)
Параметр Endianness формата : Big
Идентификатор кодека : A_AC3
Продолжительность : 1 ч. 55 м.
Вид битрейта : Постоянный
Битрейт : 192 Кбит/сек
Каналы : 2 канала
Расположение каналов : Front: L R
Частота : 48,0 КГц
Битовая глубина : 16 бит
Метод сжатия : С потерями
Размер потока : 158 Мбайт (5%)
Язык : Russian
Default : Да
Forced : Нет
DURATION : 01:55:00.924000000
NUMBER_OF_FRAMES : 215653
NUMBER_OF_BYTES : 165621504
_STATISTICS_WRITING_APP : mkvmerge v7.0.0 ('Where We Going') 64bit built on Jun 9 2014 15:16:27
_STATISTICS_WRITING_DATE_UTC : 2014-06-13 21:20:19
_STATISTICS_TAGS : BPS DURATION NUMBER_OF_FRAMES NUMBER_OF_BYTES
Download / Скачать

Хотите скачать бесплатно? Зарегистрируйтесь на сайте (ссылка на регистрацию). Pirat.ca - самый быстрый торрент трекер в рунете!

Как скачивать  ·   Что такое торрент  ·   Рейтинг и ограничения

Показать сообщения:    
Ответить на тему

Текущее время: Сегодня 10:04

Часовой пояс: GMT + 4



Вы не можете начинать темы
Вы не можете отвечать на сообщения
Вы не можете редактировать свои сообщения
Вы не можете удалять свои сообщения
Вы не можете голосовать в опросах
Вы не можете прикреплять файлы к сообщениям
Вы не можете скачивать файлы

▼ Вниз