ML
     
  Уважаемый Гость!
Вы можете поддержать проект и зарегистрироваться у наших партнеров - онлайн-стратегия MyLands. При регистрации в игре Вы получите код, который сможете активировать после регистрации на pirat.ca и получить 1000 дублонов.

Ваш код:
fe4e93b754a7c2b306fcfc8bc32532ea1cf59d3b
 
     

Чемпионат Мира 2014 / FIFA 2014 / Чили - Австралия / Группа В. 1-й тур [14.06.2014, Спорт 1 HD, Футбол, H.264, 50fps, HDTVRip/720p]

Ответить на тему
 
Автор
Сообщение

Пост 28-Июн-2014 19:54

[Q] 

UcrusPazzo

Чемпионат Мира 2014 / FIFA 2014
Чили - Австралия / Группа В. 1-й тур
-Год выпуска: 14.06.2014
Вид спорта: Футбол
Участники: Чили - Австралия
Продолжительность: 01:58:29
Комментарий: русский (Сергей Кривохарченко)-Автор рипа / записи: Striker
-Описание:
14 июня 2014 года, суббота. 02:00 мск
Группа B. 1-й тур
Стадион: Арена Пантанал (Куяба, Бразилия) Зрителей: 40275 (вместимость – 42968)
Главный судья: Нормандьез Ду (Кот-д'Ивуар)-Качество видео: HDTVRip
Контейнер: MKV
Видео кодек: H.264
Аудио кодек: AC3
Видео: 3991 Кбит/сек; 1280*720 (16:9); в 50,000 кадров/сек; 0.087 Бит/(Пиксели*Кадры); AVC
Аудио: 192 Кбит/сек; 48,0 КГц; 16 бит; 2 канала; АС-3
Чили
Вратари
1 Клаудио Браво (к) Реал Сосьедад
12 Кристофер Тоселли Универсидад Католика
23 Джонни Эррера Универсидад де Чили
Защитники
2 Эухенио Мена Сантос
3 Миико Альборнос Мальмё
4 Маурисио Исла Ювентус
13 Хосе Рохас Универсидад де Чили
17 Гари Медель Кардифф Сити
18 Гонсало Хара Ноттингем Форест
Полузащитники
5 Франсиско Сильва Осасуна
6 Карлос Кармона Аталанта
8 Артуро Видаль Ювентус
10 Хорхе Вальдивия Палмейрас
15 Жан Босежур Уиган Атлетик
16 Фелипе Гутьеррес Твенте
19 Хосе Педро Фуэнсалида Коло-Коло
20 Чарлес Арангис Интернасьонал
21 Марсело Диас Рохас Базель
Нападающие
7 Алексис Санчес Барселона
9 Маурисио Пинилья Кальяри
11 Эдуардо Варгас Валенсия
14 Фабиан Орельяна Сельта
22 Эстебан Паредес Коло-Коло
Главный тренер Хорхе Сампаоли Аргентина-Австралия
Вратари
1 Мэтью Райан Брюгге
12 Митчелл Лангерак Боруссия (Дортмунд)
18 Юджин Галекович Аделаида Юнайтед
Защитники
2 Иван Франжич Брисбен Роар
3 Джейсон Дэвидсон Хераклес
6 Мэттью Шпиранович Вестерн Сидней Уондерерс
8 Бейли Райт Престон Норт Энд
19 Райан Макгован Шаньдун Лунэн
22 Алекс Уилкинсон Чонбук Хёндэ Моторс
Полузащитники
5 Марк Миллиган Мельбурн Виктори
10 Бен Халлоран Фортуна (Дюссельдорф)
11 Томми Оур Утрехт
13 Оливер Бозанич Люцерн
14 Джеймс Троизи Мельбурн Виктори
15 Миле Единак (к) Кристал Пэлас
16 Джеймс Холланд Аустрия (Вена)
17 Мэтт Маккей Брисбен Роар
20 Дарио Видошич Сьон
21 Массимо Луонго Суиндон Таун
23 Марк Брешиано Аль-Гарафа
Нападающие
4 Тим Кэхилл Нью-Йорк Ред Буллз
7 Мэттью Леки Ингольштадт 04
9 Адам Таггарт Ньюкасл Джетс
Главный тренер Анге Постекоглу Греция
Общее
Уникальный идентификатор : 173075809650082605598069350775048950008 (0x8235303DF5728C52AB6818369D68D0F8)
Формат : Matroska
Версия формата : Version 4 / Version 2
Размер файла : 3,53 Гбайт
Продолжительность : 1 ч. 58 м.
Общий поток : 4268 Кбит/сек
Дата кодирования : UTC 2014-06-14 00:25:44
Программа кодирования : mkvmerge v7.0.0 ('Where We Going') 64bit built on Jun 9 2014 15:16:27
Библиотека кодирования : libebml v1.3.0 + libmatroska v1.4.1
Видео
Идентификатор : 1
Формат : AVC
Формат/Информация : Advanced Video Codec
Профиль формата : [email protected]
Параметр CABAC формата : Да
Параметр ReFrames формата : 4 кадра
Параметр GOP формата : M=2, N=15
Идентификатор кодека : V_MPEG4/ISO/AVC
Продолжительность : 1 ч. 58 м.
Битрейт : 3991 Кбит/сек
Ширина : 1280 пикселей
Высота : 720 пикселей
Соотношение сторон : 16:9
Режим частоты кадров : Постоянный
Частота кадров : 50,000 кадров/сек
Цветовое пространство : YUV
Субдискретизация насыщенности : 4:2:0
Битовая глубина : 8 бит
Тип развёртки : Прогрессивная
Бит/(Пиксели*Кадры) : 0.087
Размер потока : 3,30 Гбайт (94%)
Default : Да
Forced : Нет
Основные цвета : BT.709
Характеристики трансфера : BT.709
Коэффициенты матрицы : BT.709
DURATION : 01:58:29.160000000
NUMBER_OF_FRAMES : 355458
NUMBER_OF_BYTES : 3619070863
_STATISTICS_WRITING_APP : mkvmerge v7.0.0 ('Where We Going') 64bit built on Jun 9 2014 15:16:27
_STATISTICS_WRITING_DATE_UTC : 2014-06-14 00:25:44
_STATISTICS_TAGS : BPS DURATION NUMBER_OF_FRAMES NUMBER_OF_BYTES
Аудио
Идентификатор : 2
Формат : AC-3
Формат/Информация : Audio Coding 3
Расширение режима : CM (complete main)
Параметр Endianness формата : Big
Идентификатор кодека : A_AC3
Продолжительность : 1 ч. 58 м.
Вид битрейта : Постоянный
Битрейт : 192 Кбит/сек
Каналы : 2 канала
Расположение каналов : Front: L R
Частота : 48,0 КГц
Битовая глубина : 16 бит
Метод сжатия : С потерями
Размер потока : 163 Мбайт (4%)
Язык : Russian
Default : Да
Forced : Нет
DURATION : 01:58:29.148000000
NUMBER_OF_FRAMES : 222160
NUMBER_OF_BYTES : 170618880
_STATISTICS_WRITING_APP : mkvmerge v7.0.0 ('Where We Going') 64bit built on Jun 9 2014 15:16:27
_STATISTICS_WRITING_DATE_UTC : 2014-06-14 00:25:44
_STATISTICS_TAGS : BPS DURATION NUMBER_OF_FRAMES NUMBER_OF_BYTES
Download / Скачать

Хотите скачать бесплатно? Зарегистрируйтесь на сайте (ссылка на регистрацию). Pirat.ca - самый быстрый торрент трекер в рунете!

Как скачивать  ·   Что такое торрент  ·   Рейтинг и ограничения

Reno-19

420

Пост 25-Окт-2014 17:19 (спустя 3 месяца 26 дней)

[Q] 

Ни одного комментария.. Хоть просмотрите раздачу... И скажите человеку.... Спасибо!!!
[Профиль]  [ЛС] 
Показать сообщения:    
Ответить на тему

Текущее время: Сегодня 14:32

Часовой пояс: GMT + 4



Вы не можете начинать темы
Вы не можете отвечать на сообщения
Вы не можете редактировать свои сообщения
Вы не можете удалять свои сообщения
Вы не можете голосовать в опросах
Вы не можете прикреплять файлы к сообщениям
Вы не можете скачивать файлы

▼ Вниз