ML
     
  Уважаемый Гость!
Вы можете поддержать проект и зарегистрироваться у наших партнеров - онлайн-стратегия MyLands. При регистрации в игре Вы получите код, который сможете активировать после регистрации на pirat.ca и получить 1000 дублонов.

Ваш код:
f612af22ea70acf5cbe90707ac5a076d215f8f7f
 
     

Чемпионат Мира 2014 / FIFA 2014 / Колумбия – Греция / Группа С. 1-й тур [14.06.2014, Спорт 1 HD, Футбол, H.264, 50fps, HDTVRip/720p]

Ответить на тему
 
Автор
Сообщение

Пост 28-Июн-2014 20:19

[Q] 

UcrusPazzo

Чемпионат Мира 2014 / FIFA 2014
Колумбия – Греция / Группа С. 1-й тур
-Год выпуска: 14.06.2014
Вид спорта: Футбол
Участники: Колумбия – Греция
Продолжительность: 01:53:26
Комментарий: русский (Александр Гришин)-Автор рипа / записи: Striker
-Описание:
14 июня 2014 года, суббота. 20:00 мск
Группа C. 1-й тур
Стадион: Минейрао - Губернатор Магальянс Пинту (Белу-Оризонти, Бразилия) Зрителей: 57174 (вместимость – 57483)
Главный судья: Марк Гейгер (Бичвуд, Нью-Джерси, США) ; Марк Хард (США) ; Джо Флетчер (Сент-Катаринс, Канада)-Качество видео: HDTVRip
Контейнер: MKV
Видео кодек: H.264
Аудио кодек: AC3
Видео: 3939 Кбит/сек; 1280*720 (16:9); в 50,000 кадров/сек; 0.085 Бит/(Пиксели*Кадры); AVC
Аудио: 192 Кбит/сек; 48,0 КГц; 16 бит; 2 канала; АС-3
Колумбия
Вратари

1 Давид Оспина Ницца
12 Камило Варгас Санта-Фе
22 Фарид Мондрагон Депортиво Кали
Защитники
2 Кристиан Сапата Милан
3 Марио Йепес (к) Аталанта
4 Сантьяго Ариас ПСВ
7 Пабло Армеро Вест Хэм Юнайтед
16 Эдер Альварес Ривер Плейт
18 Хуан Суньига Наполи
23 Карлос Вальдес Сан-Лоренсо
Полузащитники
5 Карлос Карбонеро[7] Ривер Плейт
6 Карлос Санчес Эльче
8 Абель Агилар Тулуза
10 Хамес Родригес Монако
11 Хуан Куадрадо Фиорентина
13 Фредди Гуарин Интернационале
15 Александр Мехия Атлетико Насьональ
20 Хуан Кинтеро Порту
Нападающие
9 Теофило Гутьеррес Ривер Плейт
14 Виктор Ибарбо Кальяри
17 Карлос Бакка Севилья
19 Адриан Рамос Боруссия (Дортмунд)
21 Джексон Мартинес Порту
Главный тренер Хосе Пекерман Аргентина-Греция
Вратари

1 Орестис Карнезис Гранада
12 Панайотис Гликос ПАОК
13 Стефанос Капино Панатинаикос
Защитники
2 Иоаннис Маниатис Олимпиакос (Пирей)
3 Йоргос Цавелас ПАОК
4 Костас Манолас Олимпиакос (Пирей)
5 Вангелис Морас Эллас Верона
11 Лукас Винтра Леванте
15 Василис Торосидис Рома
19 Сократис Папастатопулос Боруссия (Дортмунд)
20 Хосе Холебас Олимпиакос (Пирей)
Полузащитники
6 Александрос Циолис Кайсериспор
8 Панайотис Коне Болонья
10 Йоргос Карагунис (к) Фулхэм
16 Лазарос Христодулопулос Болонья
18 Иоаннис Фетфацидис Дженоа
21 Костас Кацуранис ПАОК
22 Андреас Самарис Олимпиакос (Пирей)
23 Панайотис Тахцидис Торино
Нападающие
7 Йоргос Самарас Селтик
9 Константинос Митроглу Фулхэм
14 Димитрис Салпингидис ПАОК
17 Теофанис Гекас Коньяспор
Главный тренер Фернанду Сантуш Португалия
Общее
Уникальный идентификатор : 203616686017441871952424438915731457834 (0x992F25B3FF45129FB260D61E2046872A)
Формат : Matroska
Версия формата : Version 4 / Version 2
Размер файла : 3,34 Гбайт
Продолжительность : 1 ч. 53 м.
Общий поток : 4215 Кбит/сек
Дата кодирования : UTC 2014-06-14 18:13:17
Программа кодирования : mkvmerge v7.0.0 ('Where We Going') 64bit built on Jun 9 2014 15:16:27
Библиотека кодирования : libebml v1.3.0 + libmatroska v1.4.1
Видео
Идентификатор : 1
Формат : AVC
Формат/Информация : Advanced Video Codec
Профиль формата : [email protected]
Параметр CABAC формата : Да
Параметр ReFrames формата : 4 кадра
Параметр GOP формата : M=2, N=15
Идентификатор кодека : V_MPEG4/ISO/AVC
Продолжительность : 1 ч. 53 м.
Битрейт : 3939 Кбит/сек
Ширина : 1280 пикселей
Высота : 720 пикселей
Соотношение сторон : 16:9
Режим частоты кадров : Постоянный
Частота кадров : 50,000 кадров/сек
Цветовое пространство : YUV
Субдискретизация насыщенности : 4:2:0
Битовая глубина : 8 бит
Тип развёртки : Прогрессивная
Бит/(Пиксели*Кадры) : 0.085
Размер потока : 3,12 Гбайт (93%)
Default : Да
Forced : Нет
Основные цвета : BT.709
Характеристики трансфера : BT.709
Коэффициенты матрицы : BT.709
DURATION : 01:53:26.080000000
NUMBER_OF_FRAMES : 340304
NUMBER_OF_BYTES : 3419657583
_STATISTICS_WRITING_APP : mkvmerge v7.0.0 ('Where We Going') 64bit built on Jun 9 2014 15:16:27
_STATISTICS_WRITING_DATE_UTC : 2014-06-14 18:13:17
_STATISTICS_TAGS : BPS DURATION NUMBER_OF_FRAMES NUMBER_OF_BYTES
Аудио
Идентификатор : 2
Формат : AC-3
Формат/Информация : Audio Coding 3
Расширение режима : CM (complete main)
Параметр Endianness формата : Big
Идентификатор кодека : A_AC3
Продолжительность : 1 ч. 53 м.
Вид битрейта : Постоянный
Битрейт : 192 Кбит/сек
Каналы : 2 канала
Расположение каналов : Front: L R
Частота : 48,0 КГц
Битовая глубина : 16 бит
Метод сжатия : С потерями
Размер потока : 156 Мбайт (5%)
Язык : Russian
Default : Да
Forced : Нет
DURATION : 01:53:26.044000000
NUMBER_OF_FRAMES : 212688
NUMBER_OF_BYTES : 163344384
_STATISTICS_WRITING_APP : mkvmerge v7.0.0 ('Where We Going') 64bit built on Jun 9 2014 15:16:27
_STATISTICS_WRITING_DATE_UTC : 2014-06-14 18:13:17
_STATISTICS_TAGS : BPS DURATION NUMBER_OF_FRAMES NUMBER_OF_BYTES
Download / Скачать

Хотите скачать бесплатно? Зарегистрируйтесь на сайте (ссылка на регистрацию). Pirat.ca - самый быстрый торрент трекер в рунете!

Как скачивать  ·   Что такое торрент  ·   Рейтинг и ограничения

Reno-19

422

Пост 10-Окт-2014 07:27 (спустя 3 месяца 11 дней)

[Q] 

Ужас..... На любителя
[Профиль]  [ЛС] 

Reno-19

422

Пост 25-Окт-2014 16:52 (спустя 15 дней)

[Q] 

Пиратку надо поддержать, что бы всё крутилось, вертелось.... Супер!
[Профиль]  [ЛС] 
Показать сообщения:    
Ответить на тему

Текущее время: Сегодня 00:27

Часовой пояс: GMT + 4



Вы не можете начинать темы
Вы не можете отвечать на сообщения
Вы не можете редактировать свои сообщения
Вы не можете удалять свои сообщения
Вы не можете голосовать в опросах
Вы не можете прикреплять файлы к сообщениям
Вы не можете скачивать файлы

▼ Вниз