ML
     
  Уважаемый Гость!
Вы можете поддержать проект и зарегистрироваться у наших партнеров - онлайн-стратегия MyLands. При регистрации в игре Вы получите код, который сможете активировать после регистрации на pirat.ca и получить 1000 дублонов.

Ваш код:
f612af22ea70acf5cbe90707ac5a076d215f8f7f
 
     

Чемпионат Мира 2014 / FIFA 2014 / Уругвай - Коста-Рика / Группа D. 1-й тур [14.06.2014, Спорт 1 HD, Футбол, H.264, 50fps, HDTVRip/720p]

Ответить на тему
 
Автор
Сообщение

Пост 28-Июн-2014 22:20

[Q] 

UcrusPazzo

Чемпионат Мира 2014 / FIFA 2014
Уругвай - Коста-Рика / Группа D. 1-й тур
-Год выпуска: 14.06.2014
Вид спорта: Футбол
Участники: Уругвай - Коста-Рика
Продолжительность: 01:56:45
Комментарий: русский (Неценко, Антонян)-Автор рипа / записи: Striker
-Описание:
14 июня 2014 года, суббота. 23:00 мск
Группа D. 1-й тур
Стадион: Кастелан (Форталеза, Бразилия)
Главный судья: Феликс Брих (Мюнхен, Германия) ; Марк Борш (Мёнхенгладбах, Германия) ; Штефан Лупп (Цоссен, Германия)-Качество видео: HDTVRip
Контейнер: MKV
Видео кодек: H.264
Аудио кодек: AC3
Видео: 3977 Кбит/сек; 1280*720 (16:9); в 50,000 кадров/сек; 0.086 Бит/(Пиксели*Кадры); AVC
Аудио: 192 Кбит/сек; 48,0 КГц; 16 бит; 2 канала; АС-3
Уругвай
Вратари

1 Фернандо Муслера Галатасарай
12 Родриго Муньос Либертад
23 Мартин Сильва Васко да Гама
Защитники
2 Диего Лугано (к) Вест Бромвич Альбион
3 Диего Годин Атлетико Мадрид
4 Хорхе Фусиле Порту
13 Хосе Мария Хименес Атлетико Мадрид
16 Максимильяно Перейра Бенфика (Лиссабон)
19 Себастьян Коатес Ливерпуль
22 Мартин Касерес Ювентус
Полузащитники
5 Вальтер Гаргано Парма
6 Альваро Перейра Сан-Паулу
7 Кристиан Родригес Атлетико Мадрид
14 Николас Лодейро Ботафого
15 Диего Перес Болонья
17 Эхидио Аревало Риос Монаркас Морелия
18 Гастон Рамирес Саутгемптон
20 Альваро Гонсалес Лацио
Нападающие
8 Абель Эрнандес Палермо
9 Луис Суарес Ливерпуль
10 Диего Форлан Сересо Осака
11 Кристиан Стуани Эспаньол
21 Эдинсон Кавани Пари Сен-Жермен
Главный тренер Оскар Табарес Уругвай-Коста-Рика
Вратари

1 Кейлор Навас Леванте
18 Патрик Пембертон Алахуэленсе
23 Даниэль Камбронеро Эредиано
Защитники
2 Джонни Акоста Алахуэленсе
3 Джанкарло Гонсалес Коламбус Крю
4 Майкл Уманья Саприсса
6 Оскар Дуарте Брюгге
8 Давид Майри[8] Эредиано
12 Уэйлон Фрэнсис Коламбус Крю
15 Хуниор Диас Майнц 05
16 Кристиан Гамбоа Русенборг
19 Рой Миллер Нью-Йорк Ред Буллз
Полузащитники
5 Сельсо Борхес АИК
7 Кристиан Боланьос Копенгаген
11 Микаэль Баррантес Олесунн
13 Эстебан Гранадос Эредиано
17 Ельцин Техеда Саприсса
20 Диего Кальво Волеренга
22 Хосе Мигель Куберо Эредиано
Нападающие
9 Хоэль Кэмпбелл Олимпиакос (Пирей)
10 Брайан Руис (к) ПСВ
14 Рэндалл Бренес Картагинес
21 Маркос Уренья Кубань
Главный тренер Хорхе Луис Пинто Колумбия
Общее
Уникальный идентификатор : 227240107027130588859246782902417068154 (0xAAF4DA4882D572F9BDE15B9D0141907A)
Формат : Matroska
Версия формата : Version 4 / Version 2
Размер файла : 3,47 Гбайт
Продолжительность : 1 ч. 56 м.
Общий поток : 4253 Кбит/сек
Дата кодирования : UTC 2014-06-14 21:21:01
Программа кодирования : mkvmerge v7.0.0 ('Where We Going') 64bit built on Jun 9 2014 15:16:27
Библиотека кодирования : libebml v1.3.0 + libmatroska v1.4.1
Видео
Идентификатор : 1
Формат : AVC
Формат/Информация : Advanced Video Codec
Профиль формата : [email protected]
Параметр CABAC формата : Да
Параметр ReFrames формата : 4 кадра
Параметр GOP формата : M=2, N=15
Идентификатор кодека : V_MPEG4/ISO/AVC
Продолжительность : 1 ч. 56 м.
Битрейт : 3977 Кбит/сек
Ширина : 1280 пикселей
Высота : 720 пикселей
Соотношение сторон : 16:9
Режим частоты кадров : Постоянный
Частота кадров : 50,000 кадров/сек
Цветовое пространство : YUV
Субдискретизация насыщенности : 4:2:0
Битовая глубина : 8 бит
Тип развёртки : Прогрессивная
Бит/(Пиксели*Кадры) : 0.086
Размер потока : 3,24 Гбайт (93%)
Default : Да
Forced : Нет
Основные цвета : BT.709
Характеристики трансфера : BT.709
Коэффициенты матрицы : BT.709
DURATION : 01:56:44.800000000
NUMBER_OF_FRAMES : 350240
NUMBER_OF_BYTES : 3553198264
_STATISTICS_WRITING_APP : mkvmerge v7.0.0 ('Where We Going') 64bit built on Jun 9 2014 15:16:27
_STATISTICS_WRITING_DATE_UTC : 2014-06-14 21:21:01
_STATISTICS_TAGS : BPS DURATION NUMBER_OF_FRAMES NUMBER_OF_BYTES
Аудио
Идентификатор : 2
Формат : AC-3
Формат/Информация : Audio Coding 3
Расширение режима : CM (complete main)
Параметр Endianness формата : Big
Идентификатор кодека : A_AC3
Продолжительность : 1 ч. 56 м.
Вид битрейта : Постоянный
Битрейт : 192 Кбит/сек
Каналы : 2 канала
Расположение каналов : Front: L R
Частота : 48,0 КГц
Битовая глубина : 16 бит
Метод сжатия : С потерями
Размер потока : 160 Мбайт (5%)
Язык : Russian
Default : Да
Forced : Нет
DURATION : 01:56:44.780000000
NUMBER_OF_FRAMES : 218898
NUMBER_OF_BYTES : 168113664
_STATISTICS_WRITING_APP : mkvmerge v7.0.0 ('Where We Going') 64bit built on Jun 9 2014 15:16:27
_STATISTICS_WRITING_DATE_UTC : 2014-06-14 21:21:01
_STATISTICS_TAGS : BPS DURATION NUMBER_OF_FRAMES NUMBER_OF_BYTES
Download / Скачать

Хотите скачать бесплатно? Зарегистрируйтесь на сайте (ссылка на регистрацию). Pirat.ca - самый быстрый торрент трекер в рунете!

Как скачивать  ·   Что такое торрент  ·   Рейтинг и ограничения

Показать сообщения:    
Ответить на тему

Текущее время: Сегодня 00:23

Часовой пояс: GMT + 4



Вы не можете начинать темы
Вы не можете отвечать на сообщения
Вы не можете редактировать свои сообщения
Вы не можете удалять свои сообщения
Вы не можете голосовать в опросах
Вы не можете прикреплять файлы к сообщениям
Вы не можете скачивать файлы

▼ Вниз