ML
     
  Уважаемый Гость!
Вы можете поддержать проект и зарегистрироваться у наших партнеров - онлайн-стратегия MyLands. При регистрации в игре Вы получите код, который сможете активировать после регистрации на pirat.ca и получить 1000 дублонов.

Ваш код:
db0e0ad91548759ffeb9bb88bed405e1a4b3c165
 
     

Чемпионат Мира 2014 / FIFA 2014 / Англия - Италия / Группа D. 1-й тур [15.06.2014, Спорт 1 HD, Футбол, H.264, 50fps, HDTVRip/720p]

Ответить на тему
 
Автор
Сообщение

Пост 28-Июн-2014 22:21

[Q] 

UcrusPazzo

Чемпионат Мира 2014 / FIFA 2014
Англия - Италия / Группа D. 1-й тур
-Год выпуска: 15.06.2014
Вид спорта: Футбол
Участники: Англия - Италия
Продолжительность: 01:55:13
Комментарий: русский (Владимир Стогниенко)-Автор рипа / записи: Striker
-Описание:
15 июня 2014 года, воскресенье. 02:00 мск
Группа D. 1-й тур
Стадион: Арена Амазония (Манаус, Бразилия)
Главный судья: Бьорн Куйперс (Олдензал, Нидерланды) ; Сандер ван Рукел (Олдензал, Нидерланды) ; Эрвин Зейнстра (Нидерланды)-Качество видео: HDTVRip
Контейнер: MKV
Видео кодек: H.264
Аудио кодек: AC3
Видео: 3984 Кбит/сек; 1280*720 (16:9); в 50,000 кадров/сек; 0.086 Бит/(Пиксели*Кадры); AVC
Аудио: 192 Кбит/сек; 48,0 КГц; 16 бит; 2 канала; АС-3
Англия
Вратари

1 Джо Харт Манчестер Сити
13 Бен Фостер Вест Бромвич Альбион
22 Фрейзер Форстер Селтик
Защитники
2 Глен Джонсон Ливерпуль
3 Лейтон Бейнс Эвертон
5 Гари Кэхилл Челси
6 Фил Джагелка Эвертон
12 Крис Смоллинг Манчестер Юнайтед
16 Фил Джонс Манчестер Юнайтед
23 Люк Шоу Саутгемптон
Полузащитники
4 Стивен Джеррард (к) Ливерпуль
7 Джек Уилшир Арсенал
8 Фрэнк Лэмпард Челси
14 Джордан Хендерсон Ливерпуль
15 Алекс Окслейд-Чемберлен Арсенал
17 Джеймс Милнер Манчестер Сити
19 Рахим Стерлинг Ливерпуль
20 Адам Лаллана Саутгемптон
21 Росс Баркли Эвертон
Нападающие
9 Дэниел Старридж Ливерпуль
10 Уэйн Руни Манчестер Юнайтед
11 Дэнни Уэлбек Манчестер Юнайтед
18 Рики Ламберт Ливерпуль
Главный тренер Рой Ходжсон Англия-Италия
Вратари

1 Джанлуиджи Буффон (к) Ювентус
12 Сальваторе Сиригу Пари Сен-Жермен
13 Маттиа Перин Дженоа
Защитники
2 Маттия Де Шильо Милан
3 Джорджо Кьеллини Ювентус
4 Маттео Дармиан Торино
7 Иньяцио Абате Милан
15 Андреа Бардзальи Ювентус
19 Леонардо Бонуччи Ювентус
20 Гиэль Палетта Парма
Полузащитники
5 Тиагу Мотта Пари Сен-Жермен
6 Антонио Кандрева Лацио
8 Клаудио Маркизио Ювентус
14 Альберто Аквилани Фиорентина
16 Даниеле Де Росси Рома
18 Марко Пароло Парма
21 Андреа Пирло Ювентус
23 Марко Верратти Пари Сен-Жермен
Нападающие
9 Марио Балотелли Милан
10 Антонио Кассано Парма
11 Алессио Черчи Торино
17 Чиро Иммобиле Боруссия (Дортмунд)
22 Лоренцо Инсинье
Главный тренер Чезаре Пранделли Италия
Общее
Уникальный идентификатор : 190178066507725450002205534691795276507 (0x8F12F69B2CEAC63EA06E1EC0268212DB)
Формат : Matroska
Версия формата : Version 4 / Version 2
Размер файла : 3,43 Гбайт
Продолжительность : 1 ч. 55 м.
Общий поток : 4261 Кбит/сек
Дата кодирования : UTC 2014-06-15 00:21:11
Программа кодирования : mkvmerge v7.0.0 ('Where We Going') 64bit built on Jun 9 2014 15:16:27
Библиотека кодирования : libebml v1.3.0 + libmatroska v1.4.1
Видео
Идентификатор : 1
Формат : AVC
Формат/Информация : Advanced Video Codec
Профиль формата : [email protected]
Параметр CABAC формата : Да
Параметр ReFrames формата : 4 кадра
Параметр GOP формата : M=2, N=15
Идентификатор кодека : V_MPEG4/ISO/AVC
Продолжительность : 1 ч. 55 м.
Битрейт : 3984 Кбит/сек
Ширина : 1280 пикселей
Высота : 720 пикселей
Соотношение сторон : 16:9
Режим частоты кадров : Постоянный
Частота кадров : 50,000 кадров/сек
Цветовое пространство : YUV
Субдискретизация насыщенности : 4:2:0
Битовая глубина : 8 бит
Тип развёртки : Прогрессивная
Бит/(Пиксели*Кадры) : 0.086
Размер потока : 3,21 Гбайт (94%)
Default : Да
Forced : Нет
Основные цвета : BT.709
Характеристики трансфера : BT.709
Коэффициенты матрицы : BT.709
DURATION : 01:55:13.220000000
NUMBER_OF_FRAMES : 345661
NUMBER_OF_BYTES : 3513450525
_STATISTICS_WRITING_APP : mkvmerge v7.0.0 ('Where We Going') 64bit built on Jun 9 2014 15:16:27
_STATISTICS_WRITING_DATE_UTC : 2014-06-15 00:21:11
_STATISTICS_TAGS : BPS DURATION NUMBER_OF_FRAMES NUMBER_OF_BYTES
Аудио
Идентификатор : 2
Формат : AC-3
Формат/Информация : Audio Coding 3
Расширение режима : CM (complete main)
Параметр Endianness формата : Big
Идентификатор кодека : A_AC3
Продолжительность : 1 ч. 55 м.
Вид битрейта : Постоянный
Битрейт : 192 Кбит/сек
Каналы : 2 канала
Расположение каналов : Front: L R
Частота : 48,0 КГц
Битовая глубина : 16 бит
Метод сжатия : С потерями
Размер потока : 158 Мбайт (5%)
Язык : Russian
Default : Да
Forced : Нет
DURATION : 01:55:13.216000000
NUMBER_OF_FRAMES : 216038
NUMBER_OF_BYTES : 165917184
_STATISTICS_WRITING_APP : mkvmerge v7.0.0 ('Where We Going') 64bit built on Jun 9 2014 15:16:27
_STATISTICS_WRITING_DATE_UTC : 2014-06-15 00:21:11
_STATISTICS_TAGS : BPS DURATION NUMBER_OF_FRAMES NUMBER_OF_BYTES
Download / Скачать

Хотите скачать бесплатно? Зарегистрируйтесь на сайте (ссылка на регистрацию). Pirat.ca - самый быстрый торрент трекер в рунете!

Как скачивать  ·   Что такое торрент  ·   Рейтинг и ограничения

Показать сообщения:    
Ответить на тему

Текущее время: Сегодня 08:10

Часовой пояс: GMT + 4



Вы не можете начинать темы
Вы не можете отвечать на сообщения
Вы не можете редактировать свои сообщения
Вы не можете удалять свои сообщения
Вы не можете голосовать в опросах
Вы не можете прикреплять файлы к сообщениям
Вы не можете скачивать файлы

▼ Вниз