ML
     
  Уважаемый Гость!
Вы можете поддержать проект и зарегистрироваться у наших партнеров - онлайн-стратегия MyLands. При регистрации в игре Вы получите код, который сможете активировать после регистрации на pirat.ca и получить 1000 дублонов.

Ваш код:
db0e0ad91548759ffeb9bb88bed405e1a4b3c165
 
     

Чемпионат Мира 2014 / FIFA 2014 / Кот-д'Ивуар - Япония / Группа С. 1-й тур [15.06.2014, Спорт 1 HD, Футбол, H.264, 50fps, HDTVRip/720p]

Ответить на тему
 
Автор
Сообщение

Пост 28-Июн-2014 22:26

[Q] 

UcrusPazzo

Чемпионат Мира 2014 / FIFA 2014
Кот-д'Ивуар - Япония / Группа С. 1-й тур
-Год выпуска: 15.06.2014
Вид спорта: Футбол
Участники: Кот-д'Ивуар - Япония
Продолжительность: 01:54:43
Комментарий: русский (Алексей Осин)-Автор рипа / записи: Striker
-Описание:
15 июня 2014 года, воскресенье. 05:00 мск
Группа C. 1-й тур
Стадион: Арена Пернамбуку (Ресифи, Бразилия) Зрителей: 40267 (вместимость – 42849)
Главный судья: Энрике Оссес Сенкович (Сантьяго, Чили) ; Карлос Астроса Карденас (Чили) ; Серхио Роман (Чили)-Качество видео: HDTVRip
Контейнер: MKV
Видео кодек: H.264
Аудио кодек: AC3
Видео: 3980 Кбит/сек; 1280*720 (16:9); в 50,000 кадров/сек; 0.086 Бит/(Пиксели*Кадры); AVC
Аудио: 192 Кбит/сек; 48,0 КГц; 16 бит; 2 канала; АС-3
Кот-д’Ивуар
Вратари

1 Бубакар Барри Локерен
16 Сильвен Гбоуо Севе Спорт
23 Сайуба Манде Стабек
Защитники
2 Усман Вьера Ризеспор
3 Артур Бока Штутгарт
4 Коло Туре Ливерпуль
5 Дидье Зокора Трабзонспор
7 Жан-Даниэль Акпа-Акпро
17 Серж Орье Тулуза
18 Констант Джакпа Айнтрахт (Франкфурт-на-Майне)
22 Сол Бамба Трабзонспор
Полузащитники
6 Матис Болли Фортуна (Дюссельдорф)
9 Шейк Тьоте Ньюкасл Юнайтед
13 Дидье Я Конан Ганновер 96
14 Исмаэль Дьоманде Сент-Этьен
15 Макс Градель Сент-Этьен
19 Яя Туре Манчестер Сити
20 Серей Ди Базель
Нападающие
8 Саломон Калу Лилль
10 Жервиньо Рома
11 Дидье Дрогба (к) Галатасарай
12 Вильфрид Бони Суонси Сити
21 Джованни Сио Базель
Главный тренер Сабри Лямуши Франция-Япония
Вратари

1 Эйдзи Кавасима Стандард
12 Сюсаку Нисикава Урава Ред Даймондс
23 Сюити Гонда Токио
Защитники
2 Ацуто Утида Шальке 04
3 Готоку Сакаи Штутгарт
5 Юто Нагатомо Интернационале
6 Масато Морисигэ Токио
15 Ясуюки Конно Гамба Осака
19 Масахико Иноха Джубило Ивата
21 Хироки Сакаи Ганновер 96
22 Мая Ёсида Саутгемптон
Полузащитники
4 Кэйсукэ Хонда Милан
7 Ясухито Эндо Гамба Осака
8 Хироси Киётакэ Нюрнберг
10 Синдзи Кагава Манчестер Юнайтед
14 Тосихиро Аояма Санфречче Хиросима
16 Хотару Ямагути Сересо Осака
17 Макото Хасэбэ (к) Нюрнберг
Нападающие
9 Синдзи Окадзаки Майнц 05
11 Ёитиро Какитани Сересо Осака
13 Ёсито Окубо Кавасаки Фронтале
18 Юя Осако Мюнхен 1860
20 Манабу Сайто Иокогама Ф. Маринос
Главный тренер Альберто Дзаккерони Италия
Общее
Уникальный идентификатор : 209635473117848641654844760099424863374 (0x9DB652D17161CE48AB7EBEE756BC848E)
Формат : Matroska
Версия формата : Version 4 / Version 2
Размер файла : 3,41 Гбайт
Продолжительность : 1 ч. 54 м.
Общий поток : 4256 Кбит/сек
Дата кодирования : UTC 2014-06-15 04:01:25
Программа кодирования : mkvmerge v7.0.0 ('Where We Going') 64bit built on Jun 9 2014 15:16:27
Библиотека кодирования : libebml v1.3.0 + libmatroska v1.4.1
Видео
Идентификатор : 1
Формат : AVC
Формат/Информация : Advanced Video Codec
Профиль формата : [email protected]
Параметр CABAC формата : Да
Параметр ReFrames формата : 4 кадра
Параметр GOP формата : M=2, N=15
Идентификатор кодека : V_MPEG4/ISO/AVC
Продолжительность : 1 ч. 54 м.
Битрейт : 3980 Кбит/сек
Ширина : 1280 пикселей
Высота : 720 пикселей
Соотношение сторон : 16:9
Режим частоты кадров : Постоянный
Частота кадров : 50,000 кадров/сек
Цветовое пространство : YUV
Субдискретизация насыщенности : 4:2:0
Битовая глубина : 8 бит
Тип развёртки : Прогрессивная
Бит/(Пиксели*Кадры) : 0.086
Размер потока : 3,19 Гбайт (93%)
Default : Да
Forced : Нет
Основные цвета : BT.709
Характеристики трансфера : BT.709
Коэффициенты матрицы : BT.709
DURATION : 01:54:43.380000000
NUMBER_OF_FRAMES : 344169
NUMBER_OF_BYTES : 3494329219
_STATISTICS_WRITING_APP : mkvmerge v7.0.0 ('Where We Going') 64bit built on Jun 9 2014 15:16:27
_STATISTICS_WRITING_DATE_UTC : 2014-06-15 04:01:25
_STATISTICS_TAGS : BPS DURATION NUMBER_OF_FRAMES NUMBER_OF_BYTES
Аудио
Идентификатор : 2
Формат : AC-3
Формат/Информация : Audio Coding 3
Расширение режима : CM (complete main)
Параметр Endianness формата : Big
Идентификатор кодека : A_AC3
Продолжительность : 1 ч. 54 м.
Вид битрейта : Постоянный
Битрейт : 192 Кбит/сек
Каналы : 2 канала
Расположение каналов : Front: L R
Частота : 48,0 КГц
Битовая глубина : 16 бит
Метод сжатия : С потерями
Размер потока : 158 Мбайт (5%)
Язык : Russian
Default : Да
Forced : Нет
DURATION : 01:54:43.364000000
NUMBER_OF_FRAMES : 215104
NUMBER_OF_BYTES : 165199872
_STATISTICS_WRITING_APP : mkvmerge v7.0.0 ('Where We Going') 64bit built on Jun 9 2014 15:16:27
_STATISTICS_WRITING_DATE_UTC : 2014-06-15 04:01:25
_STATISTICS_TAGS : BPS DURATION NUMBER_OF_FRAMES NUMBER_OF_BYTES
Download / Скачать

Хотите скачать бесплатно? Зарегистрируйтесь на сайте (ссылка на регистрацию). Pirat.ca - самый быстрый торрент трекер в рунете!

Как скачивать  ·   Что такое торрент  ·   Рейтинг и ограничения

Показать сообщения:    
Ответить на тему

Текущее время: Сегодня 08:08

Часовой пояс: GMT + 4



Вы не можете начинать темы
Вы не можете отвечать на сообщения
Вы не можете редактировать свои сообщения
Вы не можете удалять свои сообщения
Вы не можете голосовать в опросах
Вы не можете прикреплять файлы к сообщениям
Вы не можете скачивать файлы

▼ Вниз