ML
     
  Уважаемый Гость!
Вы можете поддержать проект и зарегистрироваться у наших партнеров - онлайн-стратегия MyLands. При регистрации в игре Вы получите код, который сможете активировать после регистрации на pirat.ca и получить 1000 дублонов.

Ваш код:
ba41f7961e0b4717aed6a401d955262223b8f6c4
 
     

Чемпионат Мира 2014 / FIFA 2014 / Швейцария - Эквадор / Группа E. 1-й тур [15.06.2014, Спорт 1 HD, Футбол, H.264, 50fps, HDTVRip/720p]

Ответить на тему
 
Автор
Сообщение

Пост 28-Июн-2014 22:28

[Q] 

UcrusPazzo

Чемпионат Мира 2014 / FIFA 2014
Швейцария - Эквадор / Группа E. 1-й тур
-Год выпуска: 15.06.2014
Вид спорта: Футбол
Участники: Швейцария - Эквадор
Продолжительность: 01:54:44
Комментарий: русский (Александр Гришин)-Автор рипа / записи: Striker
-Описание:
15 июня 2014 года, воскресенье. 20:00 мск
Группа E. 1-й тур
Стадион: Манэ Гарринча - Национальный (Бразилиа, Бразилия)
Главный судья: Равшан Ирматов (Ташкент, Узбекистан) ; Абдухамидулло Расулов (Ташкент, Узбекистан) ; Бахадыр Кочкаров (Киргизия)-Качество видео: HDTVRip
Контейнер: MKV
Видео кодек: H.264
Аудио кодек: AC3
Видео: 3972 Кбит/сек; 1280*720 (16:9); в 50,000 кадров/сек; 0.086 Бит/(Пиксели*Кадры); AVC
Аудио: 192 Кбит/сек; 48,0 КГц; 16 бит; 2 канала; АС-3
Швейцария
Вратари

1 Диего Бенальо Вольфсбург
12 Янн Зоммер Базель
21 Роман Бюрки Грассхоппер
Защитники
2 Штефан Лихтштайнер Ювентус
3 Рето Циглер Сассуоло
4 Филипп Сендерос Валенсия
5 Стив фон Берген Янг Бойз
6 Михаэль Ланг Грассхоппер
13 Рикардо Родригес Вольфсбург
20 Йоан Джуру Гамбург
22 Фабиан Шер Базель
Полузащитники
7 Транквилло Барнетта Айнтрахт (Франкфурт-на-Майне)
8 Гёкхан Инлер (к) Наполи
10 Гранит Джака Боруссия (Мёнхенгладбах)
11 Валон Бехрами Наполи
14 Валентин Штокер Базель
15 Блерим Джемайли Наполи
16 Желсон Фернандеш Фрайбург
23 Джердан Шакири Бавария
Нападающие
9 Харис Сеферович Реал Сосьедад
17 Марио Гавранович Цюрих
18 Адмир Мехмеди Фрайбург
19 Йосип Дрмич Нюрнберг
Главный тренер Оттмар Хитцфельд Германия-Эквадор
Вратари

1 Максимо Бангера Барселона (Гуаякиль)
12 Адриан Боне Эль Насьональ
22 Александер Домингес ЛДУ Кито
Защитники
2 Хорхе Гуагуа Эмелек
3 Фриксон Эрасо Фламенго
4 Хуан Паредес Барселона (Гуаякиль)
10 Вальтер Айови Пачука
18 Оскар Багуи Эмелек
21 Габриэль Ачильер Эмелек
Полузащитники
5 Ренато Ибарра Витесс
6 Кристиан Нобоа Динамо (Москва)
8 Эдисон Мендес Санта-Фе
14 Освальдо Минда[9] Чивас США
16 Антонио Валенсия (к) Манчестер Юнайтед
19 Луис Саритама Барселона (Гуаякиль)
20 Фидель Мартинес Тихуана
23 Карлос Груэсо Штутгарт
Нападающие
7 Джефферсон Монтеро Монаркас Морелия
9 Хоао Рохас Крус Асуль
11 Фелипе Кайседо Аль-Джазира
13 Эннер Валенсия Пачука
15 Майкл Арройо Атланте
17 Хайме Айови Тихуана
Главный тренер Рейнальдо Руэда Колумбия
Общее
Уникальный идентификатор : 199875628625053958687815288455556297390 (0x965EA55542AD9B32B36F0844EC04F2AE)
Формат : Matroska
Версия формата : Version 4 / Version 2
Размер файла : 3,40 Гбайт
Продолжительность : 1 ч. 54 м.
Общий поток : 4248 Кбит/сек
Дата кодирования : UTC 2014-06-15 18:15:31
Программа кодирования : mkvmerge v7.0.0 ('Where We Going') 64bit built on Jun 9 2014 15:16:27
Библиотека кодирования : libebml v1.3.0 + libmatroska v1.4.1
Видео
Идентификатор : 1
Формат : AVC
Формат/Информация : Advanced Video Codec
Профиль формата : [email protected]
Параметр CABAC формата : Да
Параметр ReFrames формата : 4 кадра
Параметр GOP формата : M=2, N=15
Идентификатор кодека : V_MPEG4/ISO/AVC
Продолжительность : 1 ч. 54 м.
Битрейт : 3972 Кбит/сек
Ширина : 1280 пикселей
Высота : 720 пикселей
Соотношение сторон : 16:9
Режим частоты кадров : Постоянный
Частота кадров : 50,000 кадров/сек
Цветовое пространство : YUV
Субдискретизация насыщенности : 4:2:0
Битовая глубина : 8 бит
Тип развёртки : Прогрессивная
Бит/(Пиксели*Кадры) : 0.086
Размер потока : 3,18 Гбайт (93%)
Default : Да
Forced : Нет
Основные цвета : BT.709
Характеристики трансфера : BT.709
Коэффициенты матрицы : BT.709
DURATION : 01:54:44.140000000
NUMBER_OF_FRAMES : 344207
NUMBER_OF_BYTES : 3487541342
_STATISTICS_WRITING_APP : mkvmerge v7.0.0 ('Where We Going') 64bit built on Jun 9 2014 15:16:27
_STATISTICS_WRITING_DATE_UTC : 2014-06-15 18:15:31
_STATISTICS_TAGS : BPS DURATION NUMBER_OF_FRAMES NUMBER_OF_BYTES
Аудио
Идентификатор : 2
Формат : AC-3
Формат/Информация : Audio Coding 3
Расширение режима : CM (complete main)
Параметр Endianness формата : Big
Идентификатор кодека : A_AC3
Продолжительность : 1 ч. 54 м.
Вид битрейта : Постоянный
Битрейт : 192 Кбит/сек
Каналы : 2 канала
Расположение каналов : Front: L R
Частота : 48,0 КГц
Битовая глубина : 16 бит
Метод сжатия : С потерями
Размер потока : 158 Мбайт (5%)
Язык : Russian
Default : Да
Forced : Нет
DURATION : 01:54:44.100000000
NUMBER_OF_FRAMES : 215127
NUMBER_OF_BYTES : 165217536
_STATISTICS_WRITING_APP : mkvmerge v7.0.0 ('Where We Going') 64bit built on Jun 9 2014 15:16:27
_STATISTICS_WRITING_DATE_UTC : 2014-06-15 18:15:31
_STATISTICS_TAGS : BPS DURATION NUMBER_OF_FRAMES NUMBER_OF_BYTES
Download / Скачать

Хотите скачать бесплатно? Зарегистрируйтесь на сайте (ссылка на регистрацию). Pirat.ca - самый быстрый торрент трекер в рунете!

Как скачивать  ·   Что такое торрент  ·   Рейтинг и ограничения

Показать сообщения:    
Ответить на тему

Текущее время: Сегодня 14:46

Часовой пояс: GMT + 4



Вы не можете начинать темы
Вы не можете отвечать на сообщения
Вы не можете редактировать свои сообщения
Вы не можете удалять свои сообщения
Вы не можете голосовать в опросах
Вы не можете прикреплять файлы к сообщениям
Вы не можете скачивать файлы

▼ Вниз