ML
     
  Уважаемый Гость!
Вы можете поддержать проект и зарегистрироваться у наших партнеров - онлайн-стратегия MyLands. При регистрации в игре Вы получите код, который сможете активировать после регистрации на pirat.ca и получить 1000 дублонов.

Ваш код:
ca44e9295b9b8527ba1c339c20494f70782efea6
 
     

Чемпионат Мира 2014 / FIFA 2014 / Франция - Гондурас / Группа E. 1-й тур [15.06.2014, Спорт 1 HD, Футбол, H.264, 50fps, HDTVRip/720p]

Ответить на тему
 
Автор
Сообщение

Пост 28-Июн-2014 22:29

[Q] 

UcrusPazzo

Чемпионат Мира 2014 / FIFA 2014
Франция - Гондурас / Группа E. 1-й тур
-Год выпуска: 15.06.2014
Вид спорта: Футбол
Участники: Франция - Гондурас
Продолжительность: 01:55:29
Комментарий: русский (Юрий Розанов)-Автор рипа / записи: Striker
-Описание:
15 июня 2014 года, воскресенье. 23:00 мск
Группа E. 1-й тур
Стадион: Бейра-Рио - Жозе Пинейро Борда (Порту-Алегри, Бразилия)
Главный судья: Сандро Рикки (Посус-ди-Калдас, Бразилия) ; Эмерсон де Карвальо (Бразилия) ; Марсело Ван Гассе (Бразилия)-Качество видео: HDTVRip
Контейнер: MKV
Видео кодек: H.264
Аудио кодек: AC3
Видео: 3967 Кбит/сек; 1280*720 (16:9); в 50,000 кадров/сек; 0.086 Бит/(Пиксели*Кадры); AVC
Аудио: 192 Кбит/сек; 48,0 КГц; 16 бит; 2 канала; АС-3
Франция
Вратари
1 Уго Льорис (к) Тоттенхэм Хотспур
16 Стефан Руффье[10] Сент-Этьен
23 Микаэль Ландро Бастия
Защитники
2 Матьё Дебюши Ньюкасл Юнайтед
3 Патрис Эвра Манчестер Юнайтед
4 Рафаэль Варан Реал Мадрид
5 Мамаду Сако Ливерпуль
13 Эльяким Мангала Порту
15 Бакари Санья Арсенал
17 Люка Динь Пари Сен-Жермен
21 Лоран Косельни Арсенал
Полузащитники
6 Йоан Кабай Пари Сен-Жермен
7 Реми Кабелля[11] Монпелье
8 Матьё Вальбуэна Марсель
11 Антуан Гризманн Реал Сосьедад
12 Рио Мавуба Лилль
14 Блез Матюиди Пари Сен-Жермен
18 Мусса Сиссоко Ньюкасл Юнайтед
19 Поль Погба Ювентус
22 Морган Шнедерлен[12] Саутгемптон
Нападающие
9 Оливье Жиру Арсенал
10 Карим Бензема Реал Мадрид
20 Лоик Реми Ньюкасл Юнайтед
Главный тренер Дидье Дешам Франция-Гондурас
Вратари

1 Луис Лопес Реал Эспанья
18 Ноэль Вальядарес (к) Олимпия
22 Донис Эскобер Олимпия
Защитники
2 Осман Чавес Циндао Чжуннэн
3 Мейнор Фигероа Халл Сити
4 Хуан Пабло Монтес Мотагуа
5 Виктор Бернардес Сан-Хосе Эртквейкс
6 Хуан Карлос Гарсия Уиган Атлетик
7 Эмилио Исагирре Селтик
21 Брайан Бекелес Олимпия
Полузащитники
8 Уилсон Паласиос Сток Сити
10 Марио Мартинес Реал Эспанья
12 Эддер Дельгадо[13] Реал Эспанья
14 Оскар Гарсия Хьюстон Динамо
15 Роджер Эспиноса Уиган Атлетик
17 Энди Нахар Андерлехт
19 Луис Гарридо Олимпия
20 Хорхе Кларос Мотагуа
23 Марвин Чавес Чивас США
Нападающие
9 Джерри Паласиос Алахуэленсе
11 Джерри Бенгтсон Нью-Инглэнд Революшн
13 Карло Костли Реал Эспанья
16 Рони Мартинес Реал Сосьедад
Главный тренер Луис Фернандо Суарес Колумбия
Общее
Уникальный идентификатор : 212568664966429953083959711175032360294 (0x9FEB3C5778FED7B39630D523DED2CD66)
Формат : Matroska
Версия формата : Version 4 / Version 2
Размер файла : 3,42 Гбайт
Продолжительность : 1 ч. 55 м.
Общий поток : 4243 Кбит/сек
Дата кодирования : UTC 2014-06-15 21:30:25
Программа кодирования : mkvmerge v7.0.0 ('Where We Going') 64bit built on Jun 9 2014 15:16:27
Библиотека кодирования : libebml v1.3.0 + libmatroska v1.4.1
Видео
Идентификатор : 1
Формат : AVC
Формат/Информация : Advanced Video Codec
Профиль формата : [email protected]
Параметр CABAC формата : Да
Параметр ReFrames формата : 4 кадра
Параметр GOP формата : M=2, N=15
Идентификатор кодека : V_MPEG4/ISO/AVC
Продолжительность : 1 ч. 55 м.
Битрейт : 3967 Кбит/сек
Ширина : 1280 пикселей
Высота : 720 пикселей
Соотношение сторон : 16:9
Режим частоты кадров : Постоянный
Частота кадров : 50,000 кадров/сек
Цветовое пространство : YUV
Субдискретизация насыщенности : 4:2:0
Битовая глубина : 8 бит
Тип развёртки : Прогрессивная
Бит/(Пиксели*Кадры) : 0.086
Размер потока : 3,20 Гбайт (93%)
Default : Да
Forced : Нет
Основные цвета : BT.709
Характеристики трансфера : BT.709
Коэффициенты матрицы : BT.709
DURATION : 01:55:29.280000000
NUMBER_OF_FRAMES : 346464
NUMBER_OF_BYTES : 3506170605
_STATISTICS_WRITING_APP : mkvmerge v7.0.0 ('Where We Going') 64bit built on Jun 9 2014 15:16:27
_STATISTICS_WRITING_DATE_UTC : 2014-06-15 21:30:25
_STATISTICS_TAGS : BPS DURATION NUMBER_OF_FRAMES NUMBER_OF_BYTES
Аудио
Идентификатор : 2
Формат : AC-3
Формат/Информация : Audio Coding 3
Расширение режима : CM (complete main)
Параметр Endianness формата : Big
Идентификатор кодека : A_AC3
Продолжительность : 1 ч. 55 м.
Вид битрейта : Постоянный
Битрейт : 192 Кбит/сек
Каналы : 2 канала
Расположение каналов : Front: L R
Частота : 48,0 КГц
Битовая глубина : 16 бит
Метод сжатия : С потерями
Размер потока : 159 Мбайт (5%)
Язык : Russian
Default : Да
Forced : Нет
DURATION : 01:55:29.276000000
NUMBER_OF_FRAMES : 216539
NUMBER_OF_BYTES : 166301952
_STATISTICS_WRITING_APP : mkvmerge v7.0.0 ('Where We Going') 64bit built on Jun 9 2014 15:16:27
_STATISTICS_WRITING_DATE_UTC : 2014-06-15 21:30:25
_STATISTICS_TAGS : BPS DURATION NUMBER_OF_FRAMES NUMBER_OF_BYTES
Download / Скачать

Хотите скачать бесплатно? Зарегистрируйтесь на сайте (ссылка на регистрацию). Pirat.ca - самый быстрый торрент трекер в рунете!

Как скачивать  ·   Что такое торрент  ·   Рейтинг и ограничения

Показать сообщения:    
Ответить на тему

Текущее время: Сегодня 16:14

Часовой пояс: GMT + 4



Вы не можете начинать темы
Вы не можете отвечать на сообщения
Вы не можете редактировать свои сообщения
Вы не можете удалять свои сообщения
Вы не можете голосовать в опросах
Вы не можете прикреплять файлы к сообщениям
Вы не можете скачивать файлы

▼ Вниз