ML
     
  Уважаемый Гость!
Вы можете поддержать проект и зарегистрироваться у наших партнеров - онлайн-стратегия MyLands. При регистрации в игре Вы получите код, который сможете активировать после регистрации на pirat.ca и получить 1000 дублонов.

Ваш код:
500cb7bd8d2cec9a8aba647a87ce41c4b76f06bd
 
     

Чемпионат Мира 2014 / FIFA 2014 / Иран - Нигерия / Группа F. 1-й тур [16.06.2014, Спорт 1 HD, Футбол, H.264, 50fps, HDTVRip/720p]

Ответить на тему
 
Автор
Сообщение

Пост 28-Июн-2014 22:54

[Q] 

UcrusPazzo

Чемпионат Мира 2014 / FIFA 2014
Иран - Нигерия / Группа F. 1-й тур
-Год выпуска: 16.06.2014
Вид спорта: Футбол
Участники: Иран - Нигерия
Продолжительность: 01:53:22
Комментарий: русский (Алексей Осин)-Автор рипа / записи: Striker
-Описание:
16 июня 2014 года, понедельник. 23:00 мск
Группа F. 1-й тур
Стадион: Арена Байшада (Куритиба, Бразилия)
Главный судья: Карлос Вера Родригес (Гуаякиль, Эквадор); Кристиан Лескано (Гуаякиль, Эквадор); Байрон Ромеро (Гуаякиль, Эквадор)-Качество видео: HDTVRip
Контейнер: MKV
Видео кодек: H.264
Аудио кодек: AC3
Видео: 3945 Кбит/сек; 1280*720 (16:9); в 50,000 кадров/сек; 0.086 Бит/(Пиксели*Кадры); AVC
Аудио: 192 Кбит/сек; 48,0 КГц; 16 бит; 2 канала; АС-3
Иран
Вратари

1 Рахман Ахмади Сепахан
12 Алиреза Хагиги Спортинг (Ковильян)
22 Даниэль Давари Айнтрахт (Брауншвейг)
Защитники
2 Хосро Хейдари Эстегляль
3 Ехсан Хаджсафи Сепахан
4 Джаляль Хоссейни Персеполис
5 Амир Хоссейн Садеги Эстегляль
13 Хоссейн Махини Персеполис
15 Педжман Монтазери Умм-Салаль
17 Ахмад Альнаме Нафт Тегеран
19 Хашем Бейкзаде Эстегляль
20 Стивен Бейташур Ванкувер Уайткэпс
23 Мехрдад Пулади Персеполис
Полузащитники
6 Джавад Некунам (к) Аль-Кувейт
7 Масуд Шоджаи Лас-Пальмас
8 Реза Хагиги Персеполис
11 Гасем Хададифар Зоб Ахан
14 Андраник Теймурян Эстегляль
18 Бахтияр Рахмани Фулад
21 Ашкан Дежага Фулхэм
Нападающие
9 Алиреза Джаханбахш НЕК
10 Карим Ансарифард Персеполис
16 Реза Гучаннеджад Чарльтон Атлетик
Главный тренер Карлуш Кейрош Португалия-Нигерия
Вратари

1 Винсент Эньеама (к) Лилль
16 Остин Эджиде Хапоэль (Беэр-Шева)
21 Чигози Агбим Гомбе Юнайтед
Защитники
2 Джозеф Йобо Норвич Сити
3 Эджике Узоеньи[15] Энугу Рейнджерс
5 Эфе Амброуз Селтик
6 Азубуйке Эгвуэкве Варри Вулвз
12 Кунле Одунлами Саншайн Старз
13 Джувон Ошанива Ашдод
14 Годфри Обоабона Ризеспор
22 Кеннет Омеруо Мидлсбро
Полузащитники
4 Реубен Габриель Васланд-Беверен
10 Джон Оби Микел Челси
15 Рамон Азиз Альмерия
17 Оджени Онази Лацио
20 Майкл Учебо Серкль Брюгге
Нападающие
7 Ахмед Муса ЦСКА (Москва)
8 Питер Одемвингие Сток Сити
9 Эммануэль Эменике Фенербахче
11 Виктор Мозес Ливерпуль
18 Мишель Бабатунде Волынь
19 Уче Нвофор Херенвеен
23 Шола Амеоби Ньюкасл Юнайтед
Главный тренер Стивен Кеши Нигерия
Общее
Уникальный идентификатор : 244746678390571028432160089503457560117 (0xB8207EE43D8767A1AE9784F5FF1B4635)
Формат : Matroska
Версия формата : Version 4 / Version 2
Размер файла : 3,34 Гбайт
Продолжительность : 1 ч. 53 м.
Общий поток : 4221 Кбит/сек
Дата кодирования : UTC 2014-06-16 21:17:13
Программа кодирования : mkvmerge v7.0.0 ('Where We Going') 64bit built on Jun 9 2014 15:16:27
Библиотека кодирования : libebml v1.3.0 + libmatroska v1.4.1
Видео
Идентификатор : 1
Формат : AVC
Формат/Информация : Advanced Video Codec
Профиль формата : [email protected]
Параметр CABAC формата : Да
Параметр ReFrames формата : 4 кадра
Параметр GOP формата : M=2, N=15
Идентификатор кодека : V_MPEG4/ISO/AVC
Продолжительность : 1 ч. 53 м.
Битрейт : 3945 Кбит/сек
Ширина : 1280 пикселей
Высота : 720 пикселей
Соотношение сторон : 16:9
Режим частоты кадров : Постоянный
Частота кадров : 50,000 кадров/сек
Цветовое пространство : YUV
Субдискретизация насыщенности : 4:2:0
Битовая глубина : 8 бит
Тип развёртки : Прогрессивная
Бит/(Пиксели*Кадры) : 0.086
Размер потока : 3,12 Гбайт (93%)
Default : Да
Forced : Нет
Основные цвета : BT.709
Характеристики трансфера : BT.709
Коэффициенты матрицы : BT.709
DURATION : 01:53:21.780000000
NUMBER_OF_FRAMES : 340089
NUMBER_OF_BYTES : 3423014930
_STATISTICS_WRITING_APP : mkvmerge v7.0.0 ('Where We Going') 64bit built on Jun 9 2014 15:16:27
_STATISTICS_WRITING_DATE_UTC : 2014-06-16 21:17:13
_STATISTICS_TAGS : BPS DURATION NUMBER_OF_FRAMES NUMBER_OF_BYTES
Аудио
Идентификатор : 2
Формат : AC-3
Формат/Информация : Audio Coding 3
Расширение режима : CM (complete main)
Параметр Endianness формата : Big
Идентификатор кодека : A_AC3
Продолжительность : 1 ч. 53 м.
Вид битрейта : Постоянный
Битрейт : 192 Кбит/сек
Каналы : 2 канала
Расположение каналов : Front: L R
Частота : 48,0 КГц
Битовая глубина : 16 бит
Метод сжатия : С потерями
Размер потока : 156 Мбайт (5%)
Язык : Russian
Default : Да
Forced : Нет
DURATION : 01:53:21.756000000
NUMBER_OF_FRAMES : 212554
NUMBER_OF_BYTES : 163241472
_STATISTICS_WRITING_APP : mkvmerge v7.0.0 ('Where We Going') 64bit built on Jun 9 2014 15:16:27
_STATISTICS_WRITING_DATE_UTC : 2014-06-16 21:17:13
_STATISTICS_TAGS : BPS DURATION NUMBER_OF_FRAMES NUMBER_OF_BYTES
Download / Скачать

Хотите скачать бесплатно? Зарегистрируйтесь на сайте (ссылка на регистрацию). Pirat.ca - самый быстрый торрент трекер в рунете!

Как скачивать  ·   Что такое торрент  ·   Рейтинг и ограничения

Показать сообщения:    
Ответить на тему

Текущее время: Сегодня 01:50

Часовой пояс: GMT + 4



Вы не можете начинать темы
Вы не можете отвечать на сообщения
Вы не можете редактировать свои сообщения
Вы не можете удалять свои сообщения
Вы не можете голосовать в опросах
Вы не можете прикреплять файлы к сообщениям
Вы не можете скачивать файлы

▼ Вниз