ML
     
  Уважаемый Гость!
Вы можете поддержать проект и зарегистрироваться у наших партнеров - онлайн-стратегия MyLands. При регистрации в игре Вы получите код, который сможете активировать после регистрации на pirat.ca и получить 1000 дублонов.

Ваш код:
e93cd9e43017f251127f220889864c05934e61c6
 
     

Чемпионат Мира 2014 / FIFA 2014 / Гана - США / Группа G. 1-й тур [17.06.2014, Спорт 1 HD, Футбол, H.264, 50fps, HDTVRip/720p]

Ответить на тему
 
Автор
Сообщение

Пост 28-Июн-2014 22:55

[Q] 

UcrusPazzo

Чемпионат Мира 2014 / FIFA 2014
Гана - США / Группа G. 1-й тур
-Год выпуска: 17.06.2014
Вид спорта: Футбол
Участники: Гана - США
Продолжительность: 01:58:17
Комментарий: русский (Сергей Кривохарченко)-Автор рипа / записи: Striker
-Описание:
17 июня 2014 года, вторник. 02:00 мск
Группа G. 1-й тур
Стадион: Арена дас Дунас (Натал, Бразилия)
Главный судья: Юнас Эрикссон (Сигтуна, Швеция); Матиас Класениус (Швеция); Даниэль Варнмарк (Швеция)-Качество видео: HDTVRip
Контейнер: MKV
Видео кодек: H.264
Аудио кодек: AC3
Видео: 3964 Кбит/сек; 1280*720 (16:9); в 50,000 кадров/сек; 0.086 Бит/(Пиксели*Кадры); AVC
Аудио: 192 Кбит/сек; 48,0 КГц; 16 бит; 2 канала; АС-3
Гана
Вратари

1 Стивен Адамс Адуана Старз
12 Адам Куараси Стрёмсгодсет
16 Фатау Дауда Орландо Пайретс
Защитники
2 Самуэль Инкум Платаниас
4 Даниэль Опаре Стандард
15 Рашид Сумайла Мамелоди Сандаунз
19 Джонатан Менса Эвиан
21 Джон Бой Ренн
23 Харрисон Аффул Эсперанс (Тунис)
Полузащитники
5 Майкл Эссьен Милан
6 Африйе Аква Парма
7 Кристиан Атсу Витесс
8 Эммануэль Агеманг-Баду Удинезе
9 Кевин-Принс Боатенг Шальке 04
10 Андре Айю Марсель
11 Салли Мунтари Милан
14 Альберт Адома Мидлсбро
17 Мохаммед Рабиу Кубань
20 Квадво Асамоа Ювентус
22 Вакасо Мубарак Рубин
Нападающие
3 Асамоа Гьян (к) Аль-Айн
13 Джордан Айю Сошо
18 Маджид Уорис Валансьен[17]
Главный тренер Джеймс Квеси Аппиа Гана-США
Вратари

1 Тим Ховард Эвертон
12 Брэд Гузан Астон Вилла
22 Ник Римандо Реал Солт-Лейк
Защитники
2 Деандре Йедлин Сиэтл Саундерс
3 Омар Гонсалес Лос-Анджелес Гэлакси
5 Мэтт Беслер Спортинг Канзас-Сити
6 Джон Брукс Герта (Берлин)
7 Дамаркус Бизли Пуэбла
20 Джефф Кэмерон Сток Сити
21 Тимоти Чендлер Нюрнберг
23 Фабиан Джонсон Хоффенхайм
Полузащитники
4 Майкл Брэдли Торонто
10 Миккел Дискеруд Русенборг
11 Алехандро Бедойя Нант
13 Джермейн Джонс Бешикташ
14 Брэд Дэвис Хьюстон Динамо
15 Кайл Бекерман Реал Солт-Лейк
16 Джулиан Грин Бавария
19 Грэм Зуси Спортинг Канзас-Сити
Нападающие
8 Клинт Демпси (к) Сиэтл Саундерс
9 Арон Юханнссон АЗ
17 Джози Алтидор Сандерленд
18 Крис Вондоловски Сан-Хосе Эртквейкс
Главный тренер Юрген Клинсман Германия
Общее
Уникальный идентификатор : 226097591362070058265402964030408402376 (0xAA18CFE971593FE79C3EA6411E84A5C8)
Формат : Matroska
Версия формата : Version 4 / Version 2
Размер файла : 3,50 Гбайт
Продолжительность : 1 ч. 58 м.
Общий поток : 4241 Кбит/сек
Дата кодирования : UTC 2014-06-17 00:25:35
Программа кодирования : mkvmerge v7.0.0 ('Where We Going') 64bit built on Jun 9 2014 15:16:27
Библиотека кодирования : libebml v1.3.0 + libmatroska v1.4.1
Видео
Идентификатор : 1
Формат : AVC
Формат/Информация : Advanced Video Codec
Профиль формата : [email protected]
Параметр CABAC формата : Да
Параметр ReFrames формата : 4 кадра
Параметр GOP формата : M=2, N=15
Идентификатор кодека : V_MPEG4/ISO/AVC
Продолжительность : 1 ч. 58 м.
Битрейт : 3964 Кбит/сек
Ширина : 1280 пикселей
Высота : 720 пикселей
Соотношение сторон : 16:9
Режим частоты кадров : Постоянный
Частота кадров : 50,000 кадров/сек
Цветовое пространство : YUV
Субдискретизация насыщенности : 4:2:0
Битовая глубина : 8 бит
Тип развёртки : Прогрессивная
Бит/(Пиксели*Кадры) : 0.086
Размер потока : 3,28 Гбайт (93%)
Default : Да
Forced : Нет
Основные цвета : BT.709
Характеристики трансфера : BT.709
Коэффициенты матрицы : BT.709
DURATION : 01:58:16.740000000
NUMBER_OF_FRAMES : 354837
NUMBER_OF_BYTES : 3588752627
_STATISTICS_WRITING_APP : mkvmerge v7.0.0 ('Where We Going') 64bit built on Jun 9 2014 15:16:27
_STATISTICS_WRITING_DATE_UTC : 2014-06-17 00:25:35
_STATISTICS_TAGS : BPS DURATION NUMBER_OF_FRAMES NUMBER_OF_BYTES
Аудио
Идентификатор : 2
Формат : AC-3
Формат/Информация : Audio Coding 3
Расширение режима : CM (complete main)
Параметр Endianness формата : Big
Идентификатор кодека : A_AC3
Продолжительность : 1 ч. 58 м.
Вид битрейта : Постоянный
Битрейт : 192 Кбит/сек
Каналы : 2 канала
Расположение каналов : Front: L R
Частота : 48,0 КГц
Битовая глубина : 16 бит
Метод сжатия : С потерями
Размер потока : 162 Мбайт (5%)
Язык : Russian
Default : Да
Forced : Нет
DURATION : 01:58:16.704000000
NUMBER_OF_FRAMES : 221770
NUMBER_OF_BYTES : 170319360
_STATISTICS_WRITING_APP : mkvmerge v7.0.0 ('Where We Going') 64bit built on Jun 9 2014 15:16:27
_STATISTICS_WRITING_DATE_UTC : 2014-06-17 00:25:35
_STATISTICS_TAGS : BPS DURATION NUMBER_OF_FRAMES NUMBER_OF_BYTES
Download / Скачать

Хотите скачать бесплатно? Зарегистрируйтесь на сайте (ссылка на регистрацию). Pirat.ca - самый быстрый торрент трекер в рунете!

Как скачивать  ·   Что такое торрент  ·   Рейтинг и ограничения

Показать сообщения:    
Ответить на тему

Текущее время: Сегодня 04:23

Часовой пояс: GMT + 4



Вы не можете начинать темы
Вы не можете отвечать на сообщения
Вы не можете редактировать свои сообщения
Вы не можете удалять свои сообщения
Вы не можете голосовать в опросах
Вы не можете прикреплять файлы к сообщениям
Вы не можете скачивать файлы

▼ Вниз