ML
     
  Уважаемый Гость!
Вы можете поддержать проект и зарегистрироваться у наших партнеров - онлайн-стратегия MyLands. При регистрации в игре Вы получите код, который сможете активировать после регистрации на pirat.ca и получить 1000 дублонов.

Ваш код:
34514219cfad5497a1822ecc1269bea77988f9aa
 
     

Чемпионат Мира 2014 / FIFA 2014 / Бельгия – Алжир / Группа Н. 1-й тур [17.06.2014, Спорт 1 HD, Футбол, H.264, 50fps, HDTVRip/720p]

Ответить на тему
 
Автор
Сообщение

Пост 28-Июн-2014 22:56

[Q] 

UcrusPazzo

Чемпионат Мира 2014 / FIFA 2014
Бельгия – Алжир / Группа Н. 1-й тур
-Год выпуска: 17.06.2014
Вид спорта: Футбол
Участники: Бельгия – Алжир
Продолжительность: 01:55:56
Комментарий: русский (Александр Гришин)-Автор рипа / записи: Striker
-Описание:
17 июня 2014 года, вторник. 20:00 мск
Группа H. 1-й тур
Стадион: Минейрао - Губернатор Магальянс Пинту (Белу-Оризонти, Бразилия)
Главный судья: Марко Родригес Морено (Мехико, Мексика); Марвин Торрентера (Мексика); Маркос Кинтеро (Мексика)-Качество видео: HDTVRip
Контейнер: MKV
Видео кодек: H.264
Аудио кодек: AC3
Видео: 3978 Кбит/сек; 1280*720 (16:9); в 50,000 кадров/сек; 0.086 Бит/(Пиксели*Кадры); AVC
Аудио: 192 Кбит/сек; 48,0 КГц; 16 бит; 2 канала; АС-3
Бельгия
Вратари

1 Тибо Куртуа Атлетико Мадрид
12 Симон Миньоле Ливерпуль
13 Сэмми Боссют Зюлте-Варегем
Защитники
2 Тоби Алдервейрелд Атлетико Мадрид
3 Томас Вермален Арсенал
4 Венсан Компани (к) Манчестер Сити
5 Ян Вертонген Тоттенхэм Хотспур
15 Даниэль ван Бюйтен Бавария
18 Николас Ломбертс Зенит (Санкт-Петербург)
21 Энтони Ванден Борре Андерлехт
23 Лоран Симан Стандард
Полузащитники
6 Аксель Витсель Зенит (Санкт-Петербург)
7 Кевин де Брёйне Вольфсбург
8 Маруан Феллайни Манчестер Юнайтед
10 Эден Азар Челси
11 Кевин Миральяс Эвертон
16 Стивен Дефур Порту
19 Мусса Дембеле Тоттенхэм Хотспур
20 Аднан Янузай Манчестер Юнайтед
22 Насер Шадли Тоттенхэм Хотспур
Нападающие
9 Ромелу Лукаку Эвертон
14 Дрис Мертенс Наполи
17 Дивок Ориджи Лилль
Главный тренер Марк Вильмотс Бельгия-Алжир
Вратари

1 Седрик Си Мохамед КС Константина
16 Мохамед Земмамуш УСМ Алжир
23 Раис М’Боли ЦСКА (София)
Защитники
2 Маджид Бугерра (к) Лехвия
3 Фаузи Гулам Наполи
4 Эссаид Белькалем Уотфорд
5 Рафик Халиш Академика
6 Джамель Месбах Ливорно
12 Карл Меджани Валансьен
17 Лиассин Кадамуро-Бентаиба Мальорка
20 Аисса Манди Реймс
Полузащитники
7 Хассан Йебда Удинезе
8 Мехди Ласен Хетафе
10 Софиан Фегули Валенсия
11 Ясин Брахими Гранада
14 Набиль Бенталеб Тоттенхэм Хотспур
18 Абдельмумен Джабу Клуб Африкэн
19 Сафир Тайдер Интернационале
21 Рияд Махрез Лестер Сити
22 Мехди Мостефа Аяччо
Нападающие
9 Набиль Гиля Порту
13 Ислам Слимани Спортинг (Лиссабон)
15 Эль-Арби Хиллел Судани Динамо (Загреб)
Главный тренер Вахид Халилходжич Босния и Герцеговина
Общее
Уникальный идентификатор : 203614313932187303783774095605847178185 (0x992EB0C0126F2BC9BB928EEF1DF23BC9)
Формат : Matroska
Версия формата : Version 4 / Version 2
Размер файла : 3,45 Гбайт
Продолжительность : 1 ч. 55 м.
Общий поток : 4254 Кбит/сек
Дата кодирования : UTC 2014-06-17 18:23:00
Программа кодирования : mkvmerge v7.0.0 ('Where We Going') 64bit built on Jun 9 2014 15:16:27
Библиотека кодирования : libebml v1.3.0 + libmatroska v1.4.1
Видео
Идентификатор : 1
Формат : AVC
Формат/Информация : Advanced Video Codec
Профиль формата : [email protected]
Параметр CABAC формата : Да
Параметр ReFrames формата : 4 кадра
Параметр GOP формата : M=2, N=15
Идентификатор кодека : V_MPEG4/ISO/AVC
Продолжительность : 1 ч. 55 м.
Битрейт : 3978 Кбит/сек
Ширина : 1280 пикселей
Высота : 720 пикселей
Соотношение сторон : 16:9
Режим частоты кадров : Постоянный
Частота кадров : 50,000 кадров/сек
Цветовое пространство : YUV
Субдискретизация насыщенности : 4:2:0
Битовая глубина : 8 бит
Тип развёртки : Прогрессивная
Бит/(Пиксели*Кадры) : 0.086
Размер потока : 3,22 Гбайт (93%)
Default : Да
Forced : Нет
Основные цвета : BT.709
Характеристики трансфера : BT.709
Коэффициенты матрицы : BT.709
DURATION : 01:55:56.180000000
NUMBER_OF_FRAMES : 347809
NUMBER_OF_BYTES : 3529555028
_STATISTICS_WRITING_APP : mkvmerge v7.0.0 ('Where We Going') 64bit built on Jun 9 2014 15:16:27
_STATISTICS_WRITING_DATE_UTC : 2014-06-17 18:23:00
_STATISTICS_TAGS : BPS DURATION NUMBER_OF_FRAMES NUMBER_OF_BYTES
Аудио
Идентификатор : 2
Формат : AC-3
Формат/Информация : Audio Coding 3
Расширение режима : CM (complete main)
Параметр Endianness формата : Big
Идентификатор кодека : A_AC3
Продолжительность : 1 ч. 55 м.
Вид битрейта : Постоянный
Битрейт : 192 Кбит/сек
Каналы : 2 канала
Расположение каналов : Front: L R
Частота : 48,0 КГц
Битовая глубина : 16 бит
Метод сжатия : С потерями
Размер потока : 159 Мбайт (5%)
Язык : Russian
Default : Да
Forced : Нет
DURATION : 01:55:56.144000000
NUMBER_OF_FRAMES : 217376
NUMBER_OF_BYTES : 166944768
_STATISTICS_WRITING_APP : mkvmerge v7.0.0 ('Where We Going') 64bit built on Jun 9 2014 15:16:27
_STATISTICS_WRITING_DATE_UTC : 2014-06-17 18:23:00
_STATISTICS_TAGS : BPS DURATION NUMBER_OF_FRAMES NUMBER_OF_BYTES
Download / Скачать

Хотите скачать бесплатно? Зарегистрируйтесь на сайте (ссылка на регистрацию). Pirat.ca - самый быстрый торрент трекер в рунете!

Как скачивать  ·   Что такое торрент  ·   Рейтинг и ограничения

Показать сообщения:    
Ответить на тему

Текущее время: Сегодня 07:48

Часовой пояс: GMT + 4



Вы не можете начинать темы
Вы не можете отвечать на сообщения
Вы не можете редактировать свои сообщения
Вы не можете удалять свои сообщения
Вы не можете голосовать в опросах
Вы не можете прикреплять файлы к сообщениям
Вы не можете скачивать файлы

▼ Вниз