ML
     
  Уважаемый Гость!
Вы можете поддержать проект и зарегистрироваться у наших партнеров - онлайн-стратегия MyLands. При регистрации в игре Вы получите код, который сможете активировать после регистрации на pirat.ca и получить 1000 дублонов.

Ваш код:
a01a592a88af5f9996a6d1baec61b18a1769954d
 
     

Чемпионат Мира 2014 / FIFA 2014 / Бразилия – Мексика / Группа A. 2-й тур [17.06.2014, Спорт 1 HD, Футбол, H.264, 50fps, HDTVRip/720p]

Ответить на тему
 
Автор
Сообщение

Пост 28-Июн-2014 22:58

[Q] 

UcrusPazzo

Чемпионат Мира 2014 / FIFA 2014
Бразилия – Мексика / Группа A. 2-й тур
-Год выпуска: 17.06.2014
Вид спорта: Футбол
Участники: Бразилия – Мексика
Продолжительность: 01:54:04
Комментарий: русский (Александр Неценко)-Автор рипа / записи: Striker
-Описание:
17 июня 2014 года, вторник. 23:00 мск
Группа A. 2-й тур
Стадион: Кастелан (Форталеза, Бразилия)
Главный судья: Джюнейт Чакыр (Стамбул, Турция); Бахаттин Дуран (Стамбул, Турция); Тарык Онгун (Стамбул, Турция)-Качество видео: HDTVRip
Контейнер: MKV
Видео кодек: H.264
Аудио кодек: AC3
Видео: 3973 Кбит/сек; 1280*720 (16:9); в 50,000 кадров/сек; 0.086 Бит/(Пиксели*Кадры); AVC
Аудио: 192 Кбит/сек; 48,0 КГц; 16 бит; 2 канала; АС-3
Бразилия
Вратари
1 Джефферсон Ботафого
12 Жулио Сезар Торонто
22 Виктор Атлетико Минейро
Защитники
2 Дани Алвес Барселона
3 Тиаго Силва (к) Пари Сен-Жермен
4 Давид Луис Челси[2]
6 Марсело Реал Мадрид
13 Данте Бавария
14 Максвелл Пари Сен-Жермен
15 Энрике Наполи
23 Майкон Рома
Полузащитники
5 Фернандиньо Манчестер Сити
8 Паулиньо Тоттенхэм Хотспур
11 Оскар Челси
16 Рамирес Челси
17 Луис Густаво Вольфсбург
18 Эрнанес Интернационале
19 Виллиан Челси
Нападающие
7 Халк Зенит (Санкт-Петербург)
9 Фред Флуминенсе
10 Неймар Барселона
20 Бернард Шахтёр (Донецк)
21 Жо Атлетико Минейро
Главный тренер Луис Фелипе Сколари Бразилия-Мексика
Вратари
1 Хосе Корона Крус Асуль
12 Альфредо Талавера Толука
13 Гильермо Очоа Аяччо
Защитники
2 Франсиско Хавьер Родригес Америка
3 Карлос Сальсидо Тигрес
4 Рафаэль Маркес (к) Леон
5 Диего Рейес Порту
7 Мигель Лайюн Америка
15 Эктор Морено Эспаньол
18 Андрес Гуардадо Байер 04
22 Пауль Агилар Америка
Полузащитники
6 Эктор Эррера Порту
8 Марко Фабиан Крус Асуль
16 Мигель Анхель Понсе[3] Толука
17 Исаак Брисуэла Толука
20 Хавьер Акино[4] Вильярреал
21 Карлос Пенья Леон
23 Хуан Хосе Васкес Леон
Нападающие
9 Рауль Хименес Америка
10 Джовани дос Сантос Вильярреал
11 Алан Пулидо Тигрес
14 Хавьер Эрнандес Манчестер Юнайтед
19 Орибе Перальта Сантос Лагуна
Главный тренер Мигель Эррера Мексика
Общее
Уникальный идентификатор : 189175768297367626039886057011896301466 (0x8E51ED7D32F62FA980DAA41A3F4EB79A)
Формат : Matroska
Версия формата : Version 4 / Version 2
Размер файла : 3,39 Гбайт
Продолжительность : 1 ч. 54 м.
Общий поток : 4250 Кбит/сек
Дата кодирования : UTC 2014-06-17 21:22:20
Программа кодирования : mkvmerge v7.0.0 ('Where We Going') 64bit built on Jun 9 2014 15:16:27
Библиотека кодирования : libebml v1.3.0 + libmatroska v1.4.1
Видео
Идентификатор : 1
Формат : AVC
Формат/Информация : Advanced Video Codec
Профиль формата : [email protected]
Параметр CABAC формата : Да
Параметр ReFrames формата : 4 кадра
Параметр GOP формата : M=2, N=15
Идентификатор кодека : V_MPEG4/ISO/AVC
Продолжительность : 1 ч. 54 м.
Битрейт : 3973 Кбит/сек
Ширина : 1280 пикселей
Высота : 720 пикселей
Соотношение сторон : 16:9
Режим частоты кадров : Постоянный
Частота кадров : 50,000 кадров/сек
Цветовое пространство : YUV
Субдискретизация насыщенности : 4:2:0
Битовая глубина : 8 бит
Тип развёртки : Прогрессивная
Бит/(Пиксели*Кадры) : 0.086
Размер потока : 3,17 Гбайт (93%)
Default : Да
Forced : Нет
Основные цвета : BT.709
Характеристики трансфера : BT.709
Коэффициенты матрицы : BT.709
DURATION : 01:54:04.360000000
NUMBER_OF_FRAMES : 342218
NUMBER_OF_BYTES : 3468881495
_STATISTICS_WRITING_APP : mkvmerge v7.0.0 ('Where We Going') 64bit built on Jun 9 2014 15:16:27
_STATISTICS_WRITING_DATE_UTC : 2014-06-17 21:22:20
_STATISTICS_TAGS : BPS DURATION NUMBER_OF_FRAMES NUMBER_OF_BYTES
Аудио
Идентификатор : 2
Формат : AC-3
Формат/Информация : Audio Coding 3
Расширение режима : CM (complete main)
Параметр Endianness формата : Big
Идентификатор кодека : A_AC3
Продолжительность : 1 ч. 54 м.
Вид битрейта : Постоянный
Битрейт : 192 Кбит/сек
Каналы : 2 канала
Расположение каналов : Front: L R
Частота : 48,0 КГц
Битовая глубина : 16 бит
Метод сжатия : С потерями
Размер потока : 157 Мбайт (5%)
Язык : Russian
Default : Да
Forced : Нет
DURATION : 01:54:04.324000000
NUMBER_OF_FRAMES : 213882
NUMBER_OF_BYTES : 164261376
_STATISTICS_WRITING_APP : mkvmerge v7.0.0 ('Where We Going') 64bit built on Jun 9 2014 15:16:27
_STATISTICS_WRITING_DATE_UTC : 2014-06-17 21:22:20
_STATISTICS_TAGS : BPS DURATION NUMBER_OF_FRAMES NUMBER_OF_BYTES
Download / Скачать

Хотите скачать бесплатно? Зарегистрируйтесь на сайте (ссылка на регистрацию). Pirat.ca - самый быстрый торрент трекер в рунете!

Как скачивать  ·   Что такое торрент  ·   Рейтинг и ограничения

Показать сообщения:    
Ответить на тему

Текущее время: Сегодня 09:45

Часовой пояс: GMT + 4



Вы не можете начинать темы
Вы не можете отвечать на сообщения
Вы не можете редактировать свои сообщения
Вы не можете удалять свои сообщения
Вы не можете голосовать в опросах
Вы не можете прикреплять файлы к сообщениям
Вы не можете скачивать файлы

▼ Вниз