ML
     
  Уважаемый Гость!
Вы можете поддержать проект и зарегистрироваться у наших партнеров - онлайн-стратегия MyLands. При регистрации в игре Вы получите код, который сможете активировать после регистрации на pirat.ca и получить 1000 дублонов.

Ваш код:
a01a592a88af5f9996a6d1baec61b18a1769954d
 
     

Чемпионат Мира 2014 / FIFA 2014 / Россия - Южная Корея (Республика Корея) / Группа Н. 1-й тур [18.06.2014, Спорт 1 HD, Футбол, H.264, 50fps, HDTVRip/720p]

Ответить на тему
 
Автор
Сообщение

Пост 28-Июн-2014 22:59

[Q] 

UcrusPazzo

Чемпионат Мира 2014 / FIFA 2014
Россия - Южная Корея (Республика Корея) / Группа Н. 1-й тур
-Год выпуска: 18.06.2014
Вид спорта: Футбол
Участники: Россия - Южная Корея (Республика Корея)
Продолжительность: 01:49:08
Комментарий: русский (Юрий Розанов)-Автор рипа / записи: Striker
-Описание:
18 июня 2014 года, среда. 02:00 мск
Группа H. 1-й тур
Стадион: Арена Пантанал (Куяба, Бразилия)
Главный судья: Нестор Питана (Корпус, Мисьонес, Аргентина); Эрнан Майдана (Буэнос-Айрес, Аргентина); Хуан Пабло Белатти (Аргентина)-Качество видео: HDTVRip
Контейнер: MKV
Видео кодек: H.264
Аудио кодек: AC3
Видео: 3998 Кбит/сек; 1280*720 (16:9); в 50,000 кадров/сек; 0.087 Бит/(Пиксели*Кадры); AVC
Аудио: 192 Кбит/сек; 48,0 КГц; 16 бит; 2 канала; АС-3
Россия
Вратари

1 Игорь Акинфеев ЦСКА (Москва)
12 Юрий Лодыгин Зенит (Санкт-Петербург)
16 Сергей Рыжиков Рубин
Защитники
2 Алексей Козлов Динамо (Москва)
3 Георгий Щенников ЦСКА (Москва)
4 Сергей Игнашевич ЦСКА (Москва)
5 Андрей Семёнов Терек
13 Владимир Гранат Динамо (Москва)
14 Василий Березуцкий (к) ЦСКА (Москва)
22 Андрей Ещенко Анжи
23 Дмитрий Комбаров Спартак (Москва)
Полузащитники
7 Игорь Денисов Динамо (Москва)
8 Денис Глушаков Спартак (Москва)
10 Алан Дзагоев ЦСКА (Москва)
15 Павел Могилевец[18] Рубин
17 Олег Шатов Зенит (Санкт-Петербург)
18 Юрий Жирков Динамо (Москва)
19 Александр Самедов Локомотив (Москва)
20 Виктор Файзулин Зенит (Санкт-Петербург)
21 Алексей Ионов Динамо (Москва)
Нападающие
6 Максим Канунников Амкар[19]
9 Александр Кокорин Динамо (Москва)
11 Александр Кержаков Зенит (Санкт-Петербург)
Главный тренер Фабио Капелло Италия-Республика Корея
Вратари

1 Чон Сон Рён Сувон Блюуингз
21 Ким Сын Гю Ульсан Хёндэ
23 Ли Бом Ён Пусан Ай Парк
Защитники
2 Ким Чхан Су Касива Рейсол
3 Юн Сок Ён Куинз Парк Рейнджерс
4 Квак Тхэ Хви Аль-Хиляль (Эр-Рияд)
5 Ким Ён Гвон Гуанчжоу Эвергранд
6 Хван Сок Хо Санфречче Хиросима
12 Ли Ён Ульсан Хёндэ
20 Хон Ён Хо Аугсбург
22 Пак Чу Хо[20] Майнц 05
Полузащитники
7 Ким Бо Гён Кардифф Сити
8 Ха Дэ Сон Бэйцзин Гоань
13 Ку Джа Чхоль (к) Майнц 05
14 Хан Гук Ён Касива Рейсол
15 Пак Чон У Гуанчжоу Фули
16 Ки Сон Ён Сандерленд
17 Ли Чхон Ён Болтон Уондерерс
Нападающие
9 Сон Хын Мин Байер 04
10 Пак Чу Ён Уотфорд
11 Ли Гын Хо Санджу Санму
18 Ким Син Ук Ульсан Хёндэ
19 Чи Дон Вон Аугсбург
Главный тренер Хон Мён Бо Республика Корея
Общее
Уникальный идентификатор : 228201250769745569074601955357341784520 (0xABADF654139D37D0A410B24A728819C8)
Формат : Matroska
Версия формата : Version 4 / Version 2
Размер файла : 3,26 Гбайт
Продолжительность : 1 ч. 49 м.
Общий поток : 4275 Кбит/сек
Дата кодирования : UTC 2014-06-18 00:15:20
Программа кодирования : mkvmerge v7.0.0 ('Where We Going') 64bit built on Jun 9 2014 15:16:27
Библиотека кодирования : libebml v1.3.0 + libmatroska v1.4.1
Видео
Идентификатор : 1
Формат : AVC
Формат/Информация : Advanced Video Codec
Профиль формата : [email protected]
Параметр CABAC формата : Да
Параметр ReFrames формата : 4 кадра
Параметр GOP формата : M=2, N=15
Идентификатор кодека : V_MPEG4/ISO/AVC
Продолжительность : 1 ч. 49 м.
Битрейт : 3998 Кбит/сек
Ширина : 1280 пикселей
Высота : 720 пикселей
Соотношение сторон : 16:9
Режим частоты кадров : Постоянный
Частота кадров : 50,000 кадров/сек
Цветовое пространство : YUV
Субдискретизация насыщенности : 4:2:0
Битовая глубина : 8 бит
Тип развёртки : Прогрессивная
Бит/(Пиксели*Кадры) : 0.087
Размер потока : 3,05 Гбайт (94%)
Default : Да
Forced : Нет
Основные цвета : BT.709
Характеристики трансфера : BT.709
Коэффициенты матрицы : BT.709
DURATION : 01:49:08.320000000
NUMBER_OF_FRAMES : 327416
NUMBER_OF_BYTES : 3339719143
_STATISTICS_WRITING_APP : mkvmerge v7.0.0 ('Where We Going') 64bit built on Jun 9 2014 15:16:27
_STATISTICS_WRITING_DATE_UTC : 2014-06-18 00:15:20
_STATISTICS_TAGS : BPS DURATION NUMBER_OF_FRAMES NUMBER_OF_BYTES
Аудио
Идентификатор : 2
Формат : AC-3
Формат/Информация : Audio Coding 3
Расширение режима : CM (complete main)
Параметр Endianness формата : Big
Идентификатор кодека : A_AC3
Продолжительность : 1 ч. 49 м.
Вид битрейта : Постоянный
Битрейт : 192 Кбит/сек
Каналы : 2 канала
Расположение каналов : Front: L R
Частота : 48,0 КГц
Битовая глубина : 16 бит
Метод сжатия : С потерями
Размер потока : 150 Мбайт (4%)
Язык : Russian
Default : Да
Forced : Нет
DURATION : 01:49:08.284000000
NUMBER_OF_FRAMES : 204631
NUMBER_OF_BYTES : 157156608
_STATISTICS_WRITING_APP : mkvmerge v7.0.0 ('Where We Going') 64bit built on Jun 9 2014 15:16:27
_STATISTICS_WRITING_DATE_UTC : 2014-06-18 00:15:20
_STATISTICS_TAGS : BPS DURATION NUMBER_OF_FRAMES NUMBER_OF_BYTES
Download / Скачать

Хотите скачать бесплатно? Зарегистрируйтесь на сайте (ссылка на регистрацию). Pirat.ca - самый быстрый торрент трекер в рунете!

Как скачивать  ·   Что такое торрент  ·   Рейтинг и ограничения

Securityuser

Флибустьер

Пост 30-Июн-2014 20:25 (спустя 1 день 21 час)

[Q] 

И не удивительно, что ни кто не качает! Кто вообще эту фигню сморит!
[Профиль]  [ЛС] 

KoNiaL_KCC

Гроза морей

Пост 09-Июл-2014 23:00 (спустя 9 дней)

[Q] 

Трафик потрачен зря! да уж игра сборной россии ...
[Профиль]  [ЛС] 

sevensv

Легенда

2595

Пост 11-Июл-2014 10:21 (спустя 1 день 11 часов)

[Q] 

Ой как стыдно-то... позор...
[Профиль]  [ЛС] 
Показать сообщения:    
Ответить на тему

Текущее время: Сегодня 09:45

Часовой пояс: GMT + 4



Вы не можете начинать темы
Вы не можете отвечать на сообщения
Вы не можете редактировать свои сообщения
Вы не можете удалять свои сообщения
Вы не можете голосовать в опросах
Вы не можете прикреплять файлы к сообщениям
Вы не можете скачивать файлы

▼ Вниз