ML
     
  Уважаемый Гость!
Вы можете поддержать проект и зарегистрироваться у наших партнеров - онлайн-стратегия MyLands. При регистрации в игре Вы получите код, который сможете активировать после регистрации на pirat.ca и получить 1000 дублонов.

Ваш код:
c3360d664ceb84802c84b88ed062a5d134e2ba97
 
     

Чемпионат Мира 2014 / FIFA 2014 / Бразилия – Чили / 1/8 финала [28.06.2014, Спорт 1 HD, Футбол, H.264, 50fps, HDTVRip/720p]

Ответить на тему
 
Автор
Сообщение

Пост 29-Июн-2014 19:33

[Q] 

UcrusPazzo

Чемпионат Мира 2014 / FIFA 2014
Бразилия – Чили / 1/8 финала
-Год выпуска: 28.06.2014
Вид спорта: Футбол
Участники: Бразилия – Чили
Продолжительность: 03:02:39
Комментарий: русский (Владимир Стогниенко)-Автор рипа / записи: Striker
-Описание:
28 июня 2014 года, суббота. 20:00 мск
1/8 финала
Стадион: Минейрао - Губернатор Магальянс Пинту (Белу-Оризонти, Бразилия) Зрителей: 57714 (вместимость – 58170)
Главный судья: Ховард Уэбб (Ротерхем, Сауз-Йоркшир, Англия); Ассистент: Майкл Малларки (Девоншир, Англия); Ассистент: Даррен Кэнн (Норидж, Норфолк, Англия)-Качество видео: HDTVRip
Контейнер: MKV
Видео кодек: H.264
Аудио кодек: AC3
Видео: 3959 Кбит/сек; 1280*720 (16:9); в 50,000 кадров/сек; 0.086 Бит/(Пиксели*Кадры); AVC
Аудио: 192 Кбит/сек; 48,0 КГц; 16 бит; 2 канала; АС-3
Бразилия
Вратари
1 Джефферсон Ботафого
12 Жулио Сезар Торонто
22 Виктор Атлетико Минейро
Защитники
2 Дани Алвес Барселона
3 Тиаго Силва (к) Пари Сен-Жермен
4 Давид Луис Челси[2]
6 Марсело Реал Мадрид
13 Данте Бавария
14 Максвелл Пари Сен-Жермен
15 Энрике Наполи
23 Майкон Рома
Полузащитники
5 Фернандиньо Манчестер Сити
8 Паулиньо Тоттенхэм Хотспур
11 Оскар Челси
16 Рамирес Челси
17 Луис Густаво Вольфсбург
18 Эрнанес Интернационале
19 Виллиан Челси
Нападающие
7 Халк Зенит (Санкт-Петербург)
9 Фред Флуминенсе
10 Неймар Барселона
20 Бернард Шахтёр (Донецк)
21 Жо Атлетико Минейро
Главный тренер Луис Фелипе Сколари Бразилия-Чили
Вратари
1 Клаудио Браво (к) Реал Сосьедад
12 Кристофер Тоселли Универсидад Католика
23 Джонни Эррера Универсидад де Чили
Защитники
2 Эухенио Мена Сантос
3 Миико Альборнос Мальмё
4 Маурисио Исла Ювентус
13 Хосе Рохас Универсидад де Чили
17 Гари Медель Кардифф Сити
18 Гонсало Хара Ноттингем Форест
Полузащитники
5 Франсиско Сильва Осасуна
6 Карлос Кармона Аталанта
8 Артуро Видаль Ювентус
10 Хорхе Вальдивия Палмейрас
15 Жан Босежур Уиган Атлетик
16 Фелипе Гутьеррес Твенте
19 Хосе Педро Фуэнсалида Коло-Коло
20 Чарлес Арангис Интернасьонал
21 Марсело Диас Рохас Базель
Нападающие
7 Алексис Санчес Барселона
9 Маурисио Пинилья Кальяри
11 Эдуардо Варгас Валенсия
14 Фабиан Орельяна Сельта
22 Эстебан Паредес Коло-Коло
Главный тренер Хорхе Сампаоли Аргентина
Общее
Уникальный идентификатор : 197818280700608335751898955655446967552 (0x94D26A3FB953F9CB91CBFAC1017AB500)
Формат : Matroska
Версия формата : Version 4 / Version 2
Размер файла : 5,40 Гбайт
Продолжительность : 3 ч. 2 м.
Общий поток : 4236 Кбит/сек
Дата кодирования : UTC 2014-06-28 19:38:39
Программа кодирования : mkvmerge v7.0.0 ('Where We Going') 64bit built on Jun 9 2014 15:16:27
Библиотека кодирования : libebml v1.3.0 + libmatroska v1.4.1
Видео
Идентификатор : 1
Формат : AVC
Формат/Информация : Advanced Video Codec
Профиль формата : [email protected]
Параметр CABAC формата : Да
Параметр ReFrames формата : 4 кадра
Параметр GOP формата : M=2, N=15
Идентификатор кодека : V_MPEG4/ISO/AVC
Продолжительность : 3 ч. 2 м.
Битрейт : 3959 Кбит/сек
Ширина : 1280 пикселей
Высота : 720 пикселей
Соотношение сторон : 16:9
Режим частоты кадров : Постоянный
Частота кадров : 50,000 кадров/сек
Цветовое пространство : YUV
Субдискретизация насыщенности : 4:2:0
Битовая глубина : 8 бит
Тип развёртки : Прогрессивная
Бит/(Пиксели*Кадры) : 0.086
Размер потока : 5,05 Гбайт (93%)
Default : Да
Forced : Нет
Основные цвета : BT.709
Характеристики трансфера : BT.709
Коэффициенты матрицы : BT.709
DURATION : 03:02:38.980000000
NUMBER_OF_FRAMES : 547949
NUMBER_OF_BYTES : 5534901037
_STATISTICS_WRITING_APP : mkvmerge v7.0.0 ('Where We Going') 64bit built on Jun 9 2014 15:16:27
_STATISTICS_WRITING_DATE_UTC : 2014-06-28 19:38:39
_STATISTICS_TAGS : BPS DURATION NUMBER_OF_FRAMES NUMBER_OF_BYTES
Аудио
Идентификатор : 2
Формат : AC-3
Формат/Информация : Audio Coding 3
Расширение режима : CM (complete main)
Параметр Endianness формата : Big
Идентификатор кодека : A_AC3
Продолжительность : 3 ч. 2 м.
Вид битрейта : Постоянный
Битрейт : 192 Кбит/сек
Каналы : 2 канала
Расположение каналов : Front: L R
Частота : 48,0 КГц
Битовая глубина : 16 бит
Метод сжатия : С потерями
Размер потока : 251 Мбайт (5%)
Язык : Russian
Default : Да
Forced : Нет
DURATION : 03:02:38.944000000
NUMBER_OF_FRAMES : 342465
NUMBER_OF_BYTES : 263013120
_STATISTICS_WRITING_APP : mkvmerge v7.0.0 ('Where We Going') 64bit built on Jun 9 2014 15:16:27
_STATISTICS_WRITING_DATE_UTC : 2014-06-28 19:38:39
_STATISTICS_TAGS : BPS DURATION NUMBER_OF_FRAMES NUMBER_OF_BYTES
Download / Скачать

Хотите скачать бесплатно? Зарегистрируйтесь на сайте (ссылка на регистрацию). Pirat.ca - самый быстрый торрент трекер в рунете!

Как скачивать  ·   Что такое торрент  ·   Рейтинг и ограничения

адлер27

Корсар

Пост 02-Июл-2014 15:30 (спустя 2 дня 19 часов)

[Q] 

отличное качество. отличный чемпионат. Лови бочку

_________________
[Профиль]  [ЛС] 
Показать сообщения:    
Ответить на тему

Текущее время: Сегодня 10:09

Часовой пояс: GMT + 4



Вы не можете начинать темы
Вы не можете отвечать на сообщения
Вы не можете редактировать свои сообщения
Вы не можете удалять свои сообщения
Вы не можете голосовать в опросах
Вы не можете прикреплять файлы к сообщениям
Вы не можете скачивать файлы

▼ Вниз