ML
     
  Уважаемый Гость!
Вы можете поддержать проект и зарегистрироваться у наших партнеров - онлайн-стратегия MyLands. При регистрации в игре Вы получите код, который сможете активировать после регистрации на pirat.ca и получить 1000 дублонов.

Ваш код:
db0e0ad91548759ffeb9bb88bed405e1a4b3c165
 
     

Чемпионат Мира 2014 / FIFA 2014 / Голландия (Нидерланды) - Мексика / 1/8 финала [29.06.2014, Спорт 1 HD, Футбол, H.264, 50fps, HDTVRip/720p]

Ответить на тему
 
Автор
Сообщение

Пост 29-Июн-2014 23:26

[Q] 

UcrusPazzo

Чемпионат Мира 2014 / FIFA 2014
Голландия (Нидерланды) - Мексика / 1/8 финала
-Год выпуска: 29.06.2014
Вид спорта: Футбол
Участники: Голландия (Нидерланды) - Мексика
Продолжительность: 02:06:46
Комментарий: русский (Александр Неценко)-Автор рипа / записи: Striker
-Описание:
29 июня 2014 года, воскресенье. 20:00 мск
1/8 финала
Стадион: Кастелан (Форталеза, Бразилия)
Главный судья: Педру Проэнса (Лиссабон, Португалия); Ассистент: Бертину Миранда (Порту, Португалия); Ассистент: Жозе Тригу (Лиссабон, Португалия)-Качество видео: HDTVRip
Контейнер: MKV
Видео кодек: H.264
Аудио кодек: AC3
Видео: 3965 Кбит/сек; 1280*720 (16:9); в 50,000 кадров/сек; 0.086 Бит/(Пиксели*Кадры); AVC
Аудио: 192 Кбит/сек; 48,0 КГц; 16 бит; 2 канала; АС-3
Нидерланды
Вратари
1 Яспер Силлессен Аякс
22 Мишел Ворм Суонси Сити
23 Тим Крул Ньюкасл Юнайтед
Защитники
2 Рон Влар Астон Вилла
3 Стефан де Врей Фейеноорд
4 Бруну Мартинс Инди Фейеноорд
5 Дейли Блинд Аякс
7 Дэрил Янмат Фейеноорд
12 Паул Верхаг Аугсбург
13 Джоэл Велтман Аякс
14 Теренс Конголо Фейеноорд
Полузащитники
6 Найджел де Йонг Милан
8 Джонатан де Гузман Суонси Сити
10 Уэсли Снейдер Галатасарай
11 Арьен Роббен Бавария
16 Йорди Класи Фейеноорд
18 Лерой Фер Норвич Сити
20 Джорджиньо Вейналдум ПСВ
21 Мемфис Депай ПСВ
Нападающие
9 Робин ван Перси (к) Манчестер Юнайтед
15 Дирк Кёйт Фенербахче
17 Джермейн Ленс Динамо (Киев)
19 Клас-Ян Хюнтелар Шальке 04
Главный тренер Луи ван Гал Нидерланды-Мексика
Вратари
1 Хосе Корона Крус Асуль
12 Альфредо Талавера Толука
13 Гильермо Очоа Аяччо
Защитники
2 Франсиско Хавьер Родригес Америка
3 Карлос Сальсидо Тигрес
4 Рафаэль Маркес (к) Леон
5 Диего Рейес Порту
7 Мигель Лайюн Америка
15 Эктор Морено Эспаньол
18 Андрес Гуардадо Байер 04
22 Пауль Агилар Америка
Полузащитники
6 Эктор Эррера Порту
8 Марко Фабиан Крус Асуль
16 Мигель Анхель Понсе[3] Толука
17 Исаак Брисуэла Толука
20 Хавьер Акино[4] Вильярреал
21 Карлос Пенья Леон
23 Хуан Хосе Васкес Леон
Нападающие
9 Рауль Хименес Америка
10 Джовани дос Сантос Вильярреал
11 Алан Пулидо Тигрес
14 Хавьер Эрнандес Манчестер Юнайтед
19 Орибе Перальта Сантос Лагуна
Главный тренер Мигель Эррера Мексика
Общее
Уникальный идентификатор : 183889869856562079463805063647054472865 (0x8A57E69322E78F6D986D5BC3037F26A1)
Формат : Matroska
Версия формата : Version 4 / Version 2
Размер файла : 3,76 Гбайт
Продолжительность : 2 ч. 6 м.
Общий поток : 4241 Кбит/сек
Дата кодирования : UTC 2014-06-29 18:23:52
Программа кодирования : mkvmerge v7.0.0 ('Where We Going') 64bit built on Jun 9 2014 15:16:27
Библиотека кодирования : libebml v1.3.0 + libmatroska v1.4.1
Видео
Идентификатор : 1
Формат : AVC
Формат/Информация : Advanced Video Codec
Профиль формата : [email protected]
Параметр CABAC формата : Да
Параметр ReFrames формата : 4 кадра
Параметр GOP формата : M=2, N=15
Идентификатор кодека : V_MPEG4/ISO/AVC
Продолжительность : 2 ч. 6 м.
Битрейт : 3965 Кбит/сек
Ширина : 1280 пикселей
Высота : 720 пикселей
Соотношение сторон : 16:9
Режим частоты кадров : Постоянный
Частота кадров : 50,000 кадров/сек
Цветовое пространство : YUV
Субдискретизация насыщенности : 4:2:0
Битовая глубина : 8 бит
Тип развёртки : Прогрессивная
Бит/(Пиксели*Кадры) : 0.086
Размер потока : 3,51 Гбайт (93%)
Default : Да
Forced : Нет
Основные цвета : BT.709
Характеристики трансфера : BT.709
Коэффициенты матрицы : BT.709
DURATION : 02:06:45.980000000
NUMBER_OF_FRAMES : 380299
NUMBER_OF_BYTES : 3846524719
_STATISTICS_WRITING_APP : mkvmerge v7.0.0 ('Where We Going') 64bit built on Jun 9 2014 15:16:27
_STATISTICS_WRITING_DATE_UTC : 2014-06-29 18:23:52
_STATISTICS_TAGS : BPS DURATION NUMBER_OF_FRAMES NUMBER_OF_BYTES
Аудио
Идентификатор : 2
Формат : AC-3
Формат/Информация : Audio Coding 3
Расширение режима : CM (complete main)
Параметр Endianness формата : Big
Идентификатор кодека : A_AC3
Продолжительность : 2 ч. 6 м.
Вид битрейта : Постоянный
Битрейт : 192 Кбит/сек
Каналы : 2 канала
Расположение каналов : Front: L R
Частота : 48,0 КГц
Битовая глубина : 16 бит
Метод сжатия : С потерями
Размер потока : 174 Мбайт (5%)
Язык : Russian
Default : Да
Forced : Нет
DURATION : 02:06:45.944000000
NUMBER_OF_FRAMES : 237683
NUMBER_OF_BYTES : 182540544
_STATISTICS_WRITING_APP : mkvmerge v7.0.0 ('Where We Going') 64bit built on Jun 9 2014 15:16:27
_STATISTICS_WRITING_DATE_UTC : 2014-06-29 18:23:52
_STATISTICS_TAGS : BPS DURATION NUMBER_OF_FRAMES NUMBER_OF_BYTES
Download / Скачать

Хотите скачать бесплатно? Зарегистрируйтесь на сайте (ссылка на регистрацию). Pirat.ca - самый быстрый торрент трекер в рунете!

Как скачивать  ·   Что такое торрент  ·   Рейтинг и ограничения

Показать сообщения:    
Ответить на тему

Текущее время: Сегодня 08:07

Часовой пояс: GMT + 4



Вы не можете начинать темы
Вы не можете отвечать на сообщения
Вы не можете редактировать свои сообщения
Вы не можете удалять свои сообщения
Вы не можете голосовать в опросах
Вы не можете прикреплять файлы к сообщениям
Вы не можете скачивать файлы

▼ Вниз