ML
     
  Уважаемый Гость!
Вы можете поддержать проект и зарегистрироваться у наших партнеров - онлайн-стратегия MyLands. При регистрации в игре Вы получите код, который сможете активировать после регистрации на pirat.ca и получить 1000 дублонов.

Ваш код:
a978488e62322cd72e113ab723b8a7fdc10eb9b9
 
     

Чемпионат Мира 2014 / FIFA 2014 / Коста-Рика - Греция / 1/8 финала [30.06.2014, Спорт 1 HD, Футбол, H.264, 50fps, HDTVRip/720p]

Ответить на тему
 
Автор
Сообщение

Пост 30-Июн-2014 11:24

[Q] 

UcrusPazzo

Чемпионат Мира 2014 / FIFA 2014
Коста-Рика - Греция / 1/8 финала
-Год выпуска: 30.06.2014
Вид спорта: Футбол
Участники: Коста-Рика - Греция
Продолжительность: 02:52:08
Комментарий: русский (Александр Гришин)-Автор рипа / записи: Striker
-Описание:
30 июня 2014 года, понедельник. 00:00 мск
1/8 финала
Стадион: Арена Пернамбуку (Ресифи, Бразилия)
Главный судья: Бенджамин Уильямс (Канберра, Австралия); Ассистент: Мэттью Крим (Австралия); Ассистент: Хакан Аназ (Мельбурн, Австралия)-Качество видео: HDTVRip
Контейнер: MKV
Видео кодек: H.264
Аудио кодек: AC3
Видео: 3958 Кбит/сек; 1280*720 (16:9); в 50,000 кадров/сек; 0.086 Бит/(Пиксели*Кадры); AVC
Аудио: 192 Кбит/сек; 48,0 КГц; 16 бит; 2 канала; АС-3
Коста-Рика
Вратари

1 Кейлор Навас Леванте
18 Патрик Пембертон Алахуэленсе
23 Даниэль Камбронеро Эредиано
Защитники
2 Джонни Акоста Алахуэленсе
3 Джанкарло Гонсалес Коламбус Крю
4 Майкл Уманья Саприсса
6 Оскар Дуарте Брюгге
8 Давид Майри[8] Эредиано
12 Уэйлон Фрэнсис Коламбус Крю
15 Хуниор Диас Майнц 05
16 Кристиан Гамбоа Русенборг
19 Рой Миллер Нью-Йорк Ред Буллз
Полузащитники
5 Сельсо Борхес АИК
7 Кристиан Боланьос Копенгаген
11 Микаэль Баррантес Олесунн
13 Эстебан Гранадос Эредиано
17 Ельцин Техеда Саприсса
20 Диего Кальво Волеренга
22 Хосе Мигель Куберо Эредиано
Нападающие
9 Хоэль Кэмпбелл Олимпиакос (Пирей)
10 Брайан Руис (к) ПСВ
14 Рэндалл Бренес Картагинес
21 Маркос Уренья Кубань
Главный тренер Хорхе Луис Пинто Колумбия-Греция
Вратари

1 Орестис Карнезис Гранада
12 Панайотис Гликос ПАОК
13 Стефанос Капино Панатинаикос
Защитники
2 Иоаннис Маниатис Олимпиакос (Пирей)
3 Йоргос Цавелас ПАОК
4 Костас Манолас Олимпиакос (Пирей)
5 Вангелис Морас Эллас Верона
11 Лукас Винтра Леванте
15 Василис Торосидис Рома
19 Сократис Папастатопулос Боруссия (Дортмунд)
20 Хосе Холебас Олимпиакос (Пирей)
Полузащитники
6 Александрос Циолис Кайсериспор
8 Панайотис Коне Болонья
10 Йоргос Карагунис (к) Фулхэм
16 Лазарос Христодулопулос Болонья
18 Иоаннис Фетфацидис Дженоа
21 Костас Кацуранис ПАОК
22 Андреас Самарис Олимпиакос (Пирей)
23 Панайотис Тахцидис Торино
Нападающие
7 Йоргос Самарас Селтик
9 Константинос Митроглу Фулхэм
14 Димитрис Салпингидис ПАОК
17 Теофанис Гекас Коньяспор
Главный тренер Фернанду Сантуш Португалия
Общее
Уникальный идентификатор : 216470799501643256220177044527652572885 (0xA2DAC26D949CE817B6755D58F9188ED5)
Формат : Matroska
Версия формата : Version 4 / Version 2
Размер файла : 5,09 Гбайт
Продолжительность : 2 ч. 52 м.
Общий поток : 4235 Кбит/сек
Дата кодирования : UTC 2014-06-29 23:39:18
Программа кодирования : mkvmerge v7.0.0 ('Where We Going') 64bit built on Jun 9 2014 15:16:27
Библиотека кодирования : libebml v1.3.0 + libmatroska v1.4.1
Видео
Идентификатор : 1
Формат : AVC
Формат/Информация : Advanced Video Codec
Профиль формата : [email protected]
Параметр CABAC формата : Да
Параметр ReFrames формата : 4 кадра
Параметр GOP формата : M=2, N=15
Идентификатор кодека : V_MPEG4/ISO/AVC
Продолжительность : 2 ч. 52 м.
Битрейт : 3958 Кбит/сек
Ширина : 1280 пикселей
Высота : 720 пикселей
Соотношение сторон : 16:9
Режим частоты кадров : Постоянный
Частота кадров : 50,000 кадров/сек
Цветовое пространство : YUV
Субдискретизация насыщенности : 4:2:0
Битовая глубина : 8 бит
Тип развёртки : Прогрессивная
Бит/(Пиксели*Кадры) : 0.086
Размер потока : 4,76 Гбайт (93%)
Default : Да
Forced : Нет
Основные цвета : BT.709
Характеристики трансфера : BT.709
Коэффициенты матрицы : BT.709
DURATION : 02:52:08.280000000
NUMBER_OF_FRAMES : 516414
NUMBER_OF_BYTES : 5215088005
_STATISTICS_WRITING_APP : mkvmerge v7.0.0 ('Where We Going') 64bit built on Jun 9 2014 15:16:27
_STATISTICS_WRITING_DATE_UTC : 2014-06-29 23:39:18
_STATISTICS_TAGS : BPS DURATION NUMBER_OF_FRAMES NUMBER_OF_BYTES
Аудио
Идентификатор : 2
Формат : AC-3
Формат/Информация : Audio Coding 3
Расширение режима : CM (complete main)
Параметр Endianness формата : Big
Идентификатор кодека : A_AC3
Продолжительность : 2 ч. 52 м.
Вид битрейта : Постоянный
Битрейт : 192 Кбит/сек
Каналы : 2 канала
Расположение каналов : Front: L R
Частота : 48,0 КГц
Битовая глубина : 16 бит
Метод сжатия : С потерями
Размер потока : 236 Мбайт (5%)
Язык : Russian
Default : Да
Forced : Нет
DURATION : 02:52:08.244000000
NUMBER_OF_FRAMES : 322755
NUMBER_OF_BYTES : 247875840
_STATISTICS_WRITING_APP : mkvmerge v7.0.0 ('Where We Going') 64bit built on Jun 9 2014 15:16:27
_STATISTICS_WRITING_DATE_UTC : 2014-06-29 23:39:18
_STATISTICS_TAGS : BPS DURATION NUMBER_OF_FRAMES NUMBER_OF_BYTES
Download / Скачать

Хотите скачать бесплатно? Зарегистрируйтесь на сайте (ссылка на регистрацию). Pirat.ca - самый быстрый торрент трекер в рунете!

Как скачивать  ·   Что такое торрент  ·   Рейтинг и ограничения

Показать сообщения:    
Ответить на тему

Текущее время: Сегодня 22:08

Часовой пояс: GMT + 4



Вы не можете начинать темы
Вы не можете отвечать на сообщения
Вы не можете редактировать свои сообщения
Вы не можете удалять свои сообщения
Вы не можете голосовать в опросах
Вы не можете прикреплять файлы к сообщениям
Вы не можете скачивать файлы

▼ Вниз