ML
     
  Уважаемый Гость!
Вы можете поддержать проект и зарегистрироваться у наших партнеров - онлайн-стратегия MyLands. При регистрации в игре Вы получите код, который сможете активировать после регистрации на pirat.ca и получить 1000 дублонов.

Ваш код:
c3360d664ceb84802c84b88ed062a5d134e2ba97
 
     

Чемпионат Мира 2014 / FIFA 2014 / Австралия – Голландия (Нидерланды) / Группа В. 2-й тур [18.06.2014, Спорт 1 HD, Футбол, H.264, 50fps, HDTVRip/720p]

Ответить на тему
 
Автор
Сообщение

Пост 30-Июн-2014 15:34

[Q] 

UcrusPazzo

Чемпионат Мира 2014 / FIFA 2014
Австралия – Голландия (Нидерланды) / Группа В. 2-й тур
-Год выпуска: 18.06.2014
Вид спорта: Футбол
Участники: Австралия – Голландия (Нидерланды)
Продолжительность: 01:51:53
Комментарий: русский (Юрий Розанов)-Автор рипа / записи: Striker
-Описание:
18 июня 2014 года, среда. 20:00 мск
Группа B. 2-й тур
Стадион: Бейра-Рио - Жозе Пинейро Борда (Порту-Алегри, Бразилия) Зрителей: 42877 (вместимость – 48849)
Главный судья: Джамель Хаймуди (Релизан, Алжир); Редуане Ачик (Релизан, Марокко); Абделхалк Этшиали (Алжир)-Качество видео: HDTVRip
Контейнер: MKV
Видео кодек: H.264
Аудио кодек: AC3
Видео: 3975 Кбит/сек; 1280*720 (16:9); в 50,000 кадров/сек; 0.086 Бит/(Пиксели*Кадры); AVC
Аудио: 192 Кбит/сек; 48,0 КГц; 16 бит; 2 канала; АС-3
Австралия
Вратари
1 Мэтью Райан Брюгге
12 Митчелл Лангерак Боруссия (Дортмунд)
18 Юджин Галекович Аделаида Юнайтед
Защитники
2 Иван Франжич Брисбен Роар
3 Джейсон Дэвидсон Хераклес
6 Мэттью Шпиранович Вестерн Сидней Уондерерс
8 Бейли Райт Престон Норт Энд
19 Райан Макгован Шаньдун Лунэн
22 Алекс Уилкинсон Чонбук Хёндэ Моторс
Полузащитники
5 Марк Миллиган Мельбурн Виктори
10 Бен Халлоран Фортуна (Дюссельдорф)
11 Томми Оур Утрехт
13 Оливер Бозанич Люцерн
14 Джеймс Троизи Мельбурн Виктори
15 Миле Единак (к) Кристал Пэлас
16 Джеймс Холланд Аустрия (Вена)
17 Мэтт Маккей Брисбен Роар
20 Дарио Видошич Сьон
21 Массимо Луонго Суиндон Таун
23 Марк Брешиано Аль-Гарафа
Нападающие
4 Тим Кэхилл Нью-Йорк Ред Буллз
7 Мэттью Леки Ингольштадт 04
9 Адам Таггарт Ньюкасл Джетс
Главный тренер Анге Постекоглу Греция-Нидерланды
Вратари
1 Яспер Силлессен Аякс
22 Мишел Ворм Суонси Сити
23 Тим Крул Ньюкасл Юнайтед
Защитники
2 Рон Влар Астон Вилла
3 Стефан де Врей Фейеноорд
4 Бруну Мартинс Инди Фейеноорд
5 Дейли Блинд Аякс
7 Дэрил Янмат Фейеноорд
12 Паул Верхаг Аугсбург
13 Джоэл Велтман Аякс
14 Теренс Конголо Фейеноорд
Полузащитники
6 Найджел де Йонг Милан
8 Джонатан де Гузман Суонси Сити
10 Уэсли Снейдер Галатасарай
11 Арьен Роббен Бавария
16 Йорди Класи Фейеноорд
18 Лерой Фер Норвич Сити
20 Джорджиньо Вейналдум ПСВ
21 Мемфис Депай ПСВ
Нападающие
9 Робин ван Перси (к) Манчестер Юнайтед
15 Дирк Кёйт Фенербахче
17 Джермейн Ленс Динамо (Киев)
19 Клас-Ян Хюнтелар Шальке 04
Главный тренер Луи ван Гал Нидерланды
Общее
Уникальный идентификатор : 246013022632359423737129991724069267391 (0xB914627BADC0EDD49A40D28D9127A7BF)
Формат : Matroska
Версия формата : Version 4 / Version 2
Размер файла : 3,32 Гбайт
Продолжительность : 1 ч. 51 м.
Общий поток : 4252 Кбит/сек
Дата кодирования : UTC 2014-06-18 18:41:35
Программа кодирования : mkvmerge v7.0.0 ('Where We Going') 64bit built on Jun 9 2014 15:16:27
Библиотека кодирования : libebml v1.3.0 + libmatroska v1.4.1
Видео
Идентификатор : 1
Формат : AVC
Формат/Информация : Advanced Video Codec
Профиль формата : [email protected]
Параметр CABAC формата : Да
Параметр ReFrames формата : 4 кадра
Параметр GOP формата : M=2, N=15
Идентификатор кодека : V_MPEG4/ISO/AVC
Продолжительность : 1 ч. 51 м.
Битрейт : 3975 Кбит/сек
Ширина : 1280 пикселей
Высота : 720 пикселей
Соотношение сторон : 16:9
Режим частоты кадров : Постоянный
Частота кадров : 50,000 кадров/сек
Цветовое пространство : YUV
Субдискретизация насыщенности : 4:2:0
Битовая глубина : 8 бит
Тип развёртки : Прогрессивная
Бит/(Пиксели*Кадры) : 0.086
Размер потока : 3,11 Гбайт (93%)
Default : Да
Forced : Нет
Основные цвета : BT.709
Характеристики трансфера : BT.709
Коэффициенты матрицы : BT.709
DURATION : 01:51:53.260000000
NUMBER_OF_FRAMES : 335663
NUMBER_OF_BYTES : 3403879850
_STATISTICS_WRITING_APP : mkvmerge v7.0.0 ('Where We Going') 64bit built on Jun 9 2014 15:16:27
_STATISTICS_WRITING_DATE_UTC : 2014-06-18 18:41:35
_STATISTICS_TAGS : BPS DURATION NUMBER_OF_FRAMES NUMBER_OF_BYTES
Аудио
Идентификатор : 2
Формат : AC-3
Формат/Информация : Audio Coding 3
Расширение режима : CM (complete main)
Параметр Endianness формата : Big
Идентификатор кодека : A_AC3
Продолжительность : 1 ч. 51 м.
Вид битрейта : Постоянный
Битрейт : 192 Кбит/сек
Каналы : 2 канала
Расположение каналов : Front: L R
Частота : 48,0 КГц
Битовая глубина : 16 бит
Метод сжатия : С потерями
Размер потока : 154 Мбайт (5%)
Язык : Russian
Default : Да
Forced : Нет
DURATION : 01:51:53.224000000
NUMBER_OF_FRAMES : 209786
NUMBER_OF_BYTES : 161115648
_STATISTICS_WRITING_APP : mkvmerge v7.0.0 ('Where We Going') 64bit built on Jun 9 2014 15:16:27
_STATISTICS_WRITING_DATE_UTC : 2014-06-18 18:41:35
_STATISTICS_TAGS : BPS DURATION NUMBER_OF_FRAMES NUMBER_OF_BYTES
Download / Скачать

Хотите скачать бесплатно? Зарегистрируйтесь на сайте (ссылка на регистрацию). Pirat.ca - самый быстрый торрент трекер в рунете!

Как скачивать  ·   Что такое торрент  ·   Рейтинг и ограничения

Показать сообщения:    
Ответить на тему

Текущее время: Сегодня 10:07

Часовой пояс: GMT + 4



Вы не можете начинать темы
Вы не можете отвечать на сообщения
Вы не можете редактировать свои сообщения
Вы не можете удалять свои сообщения
Вы не можете голосовать в опросах
Вы не можете прикреплять файлы к сообщениям
Вы не можете скачивать файлы

▼ Вниз