ML
     
  Уважаемый Гость!
Вы можете поддержать проект и зарегистрироваться у наших партнеров - онлайн-стратегия MyLands. При регистрации в игре Вы получите код, который сможете активировать после регистрации на pirat.ca и получить 1000 дублонов.

Ваш код:
0ea1bf889af42fca5f67d0a391efb3400850ad7c
 
     

Чемпионат Мира 2014 / FIFA 2014 / Испания - Чили / Группа В. 2-й тур [18.06.2014, Спорт 1 HD, Футбол, H.264, 50fps, HDTVRip/720p]

Ответить на тему
 
Автор
Сообщение

Пост 30-Июн-2014 15:36

[Q] 

UcrusPazzo

Чемпионат Мира 2014 / FIFA 2014
Испания - Чили / Группа В. 2-й тур
-Год выпуска: 18.06.2014
Вид спорта: Футбол
Участники: Испания - Чили
Продолжительность: 02:00:40
Комментарий: русский (Владимир Стогниенко)-Автор рипа / записи: Striker
-Описание:
18 июня 2014 года, среда. 23:00 мск
Группа B. 2-й тур
Стадион: Маракана - Марио Филью (Рио-де-Жанейро, Бразилия) Зрителей: 74010 (вместимость – 74738)
Главный судья: Марк Гейгер (Бичвуд, Нью-Джерси, США); Марк Хард (США); Джо Флетчер (Сент-Катаринс, Канада)-Качество видео: HDTVRip
Контейнер: MKV
Видео кодек: H.264
Аудио кодек: AC3
Видео: 3974 Кбит/сек; 1280*720 (16:9); в 50,000 кадров/сек; 0.086 Бит/(Пиксели*Кадры); AVC
Аудио: 192 Кбит/сек; 48,0 КГц; 16 бит; 2 канала; АС-3
Испания
Вратари
1 Икер Касильяс (к) Реал Мадрид
12 Давид Де Хеа Манчестер Юнайтед
23 Пепе Рейна Наполи
Защитники
2 Рауль Альбиоль Наполи
3 Жерар Пике Барселона
5 Хуанфран Атлетико Мадрид
15 Серхио Рамос Реал Мадрид
18 Жорди Альба Барселона
22 Сесар Аспиликуэта Челси
Полузащитники
4 Хави Мартинес Бавария
6 Андрес Иньеста Барселона
8 Хави Барселона
10 Сеск Фабрегас Барселона[5]
13 Хуан Мата Манчестер Юнайтед
14 Хаби Алонсо Реал Мадрид
16 Серхио Бускетс Барселона
17 Коке Атлетико Мадрид
20 Санти Касорла Арсенал
21 Давид Сильва Манчестер Сити
Нападающие
7 Давид Вилья Атлетико Мадрид[6]
9 Фернандо Торрес Челси
11 Педро Родригес Барселона
19 Диего Коста Атлетико Мадрид
Главный тренер Висенте Дель Боске Испания-Чили
Вратари
1 Клаудио Браво (к) Реал Сосьедад
12 Кристофер Тоселли Универсидад Католика
23 Джонни Эррера Универсидад де Чили
Защитники
2 Эухенио Мена Сантос
3 Миико Альборнос Мальмё
4 Маурисио Исла Ювентус
13 Хосе Рохас Универсидад де Чили
17 Гари Медель Кардифф Сити
18 Гонсало Хара Ноттингем Форест
Полузащитники
5 Франсиско Сильва Осасуна
6 Карлос Кармона Аталанта
8 Артуро Видаль Ювентус
10 Хорхе Вальдивия Палмейрас
15 Жан Босежур Уиган Атлетик
16 Фелипе Гутьеррес Твенте
19 Хосе Педро Фуэнсалида Коло-Коло
20 Чарлес Арангис Интернасьонал
21 Марсело Диас Рохас Базель
Нападающие
7 Алексис Санчес Барселона
9 Маурисио Пинилья Кальяри
11 Эдуардо Варгас Валенсия
14 Фабиан Орельяна Сельта
22 Эстебан Паредес Коло-Коло
Главный тренер Хорхе Сампаоли Аргентина
Общее
Уникальный идентификатор : 201795562174299926946702034827452281162 (0x97D0695D8ADBFEAAAF6C415FCF86F14A)
Формат : Matroska
Версия формата : Version 4 / Version 2
Размер файла : 3,58 Гбайт
Продолжительность : 2 ч. 0 м.
Общий поток : 4251 Кбит/сек
Дата кодирования : UTC 2014-06-18 21:45:51
Программа кодирования : mkvmerge v7.0.0 ('Where We Going') 64bit built on Jun 9 2014 15:16:27
Библиотека кодирования : libebml v1.3.0 + libmatroska v1.4.1
Видео
Идентификатор : 1
Формат : AVC
Формат/Информация : Advanced Video Codec
Профиль формата : [email protected]
Параметр CABAC формата : Да
Параметр ReFrames формата : 4 кадра
Параметр GOP формата : M=2, N=15
Идентификатор кодека : V_MPEG4/ISO/AVC
Продолжительность : 2 ч. 0 м.
Битрейт : 3974 Кбит/сек
Ширина : 1280 пикселей
Высота : 720 пикселей
Соотношение сторон : 16:9
Режим частоты кадров : Постоянный
Частота кадров : 50,000 кадров/сек
Цветовое пространство : YUV
Субдискретизация насыщенности : 4:2:0
Битовая глубина : 8 бит
Тип развёртки : Прогрессивная
Бит/(Пиксели*Кадры) : 0.086
Размер потока : 3,35 Гбайт (93%)
Default : Да
Forced : Нет
Основные цвета : BT.709
Характеристики трансфера : BT.709
Коэффициенты матрицы : BT.709
DURATION : 02:00:40.140000000
NUMBER_OF_FRAMES : 362007
NUMBER_OF_BYTES : 3670620455
_STATISTICS_WRITING_APP : mkvmerge v7.0.0 ('Where We Going') 64bit built on Jun 9 2014 15:16:27
_STATISTICS_WRITING_DATE_UTC : 2014-06-18 21:45:51
_STATISTICS_TAGS : BPS DURATION NUMBER_OF_FRAMES NUMBER_OF_BYTES
Аудио
Идентификатор : 2
Формат : AC-3
Формат/Информация : Audio Coding 3
Расширение режима : CM (complete main)
Параметр Endianness формата : Big
Идентификатор кодека : A_AC3
Продолжительность : 2 ч. 0 м.
Вид битрейта : Постоянный
Битрейт : 192 Кбит/сек
Каналы : 2 канала
Расположение каналов : Front: L R
Частота : 48,0 КГц
Битовая глубина : 16 бит
Метод сжатия : С потерями
Размер потока : 166 Мбайт (5%)
Язык : Russian
Default : Да
Forced : Нет
DURATION : 02:00:40.104000000
NUMBER_OF_FRAMES : 226251
NUMBER_OF_BYTES : 173760768
_STATISTICS_WRITING_APP : mkvmerge v7.0.0 ('Where We Going') 64bit built on Jun 9 2014 15:16:27
_STATISTICS_WRITING_DATE_UTC : 2014-06-18 21:45:51
_STATISTICS_TAGS : BPS DURATION NUMBER_OF_FRAMES NUMBER_OF_BYTES
Download / Скачать

Хотите скачать бесплатно? Зарегистрируйтесь на сайте (ссылка на регистрацию). Pirat.ca - самый быстрый торрент трекер в рунете!

Как скачивать  ·   Что такое торрент  ·   Рейтинг и ограничения

Показать сообщения:    
Ответить на тему

Текущее время: Сегодня 00:39

Часовой пояс: GMT + 4



Вы не можете начинать темы
Вы не можете отвечать на сообщения
Вы не можете редактировать свои сообщения
Вы не можете удалять свои сообщения
Вы не можете голосовать в опросах
Вы не можете прикреплять файлы к сообщениям
Вы не можете скачивать файлы

▼ Вниз