ML
     
  Уважаемый Гость!
Вы можете поддержать проект и зарегистрироваться у наших партнеров - онлайн-стратегия MyLands. При регистрации в игре Вы получите код, который сможете активировать после регистрации на pirat.ca и получить 1000 дублонов.

Ваш код:
e93cd9e43017f251127f220889864c05934e61c6
 
     

Чемпионат Мира 2014 / FIFA 2014 / Камерун – Хорватия / Группа А. 2-й тур [19.06.2014, Спорт 1 HD, Футбол, H.264, 50fps, HDTVRip/720p]

Ответить на тему
 
Автор
Сообщение

Пост 30-Июн-2014 15:37

[Q] 

UcrusPazzo

Чемпионат Мира 2014 / FIFA 2014
Камерун – Хорватия / Группа А. 2-й тур
-Год выпуска: 19.06.2014
Вид спорта: Футбол
Участники: Камерун – Хорватия
Продолжительность: 01:41:02
Комментарий: русский (Сергей Кривохарченко)-Автор рипа / записи: Striker
-Описание:
19 июня 2014 года, четверг. 02:00 мск
Группа A. 2-й тур
Стадион: Арена Амазония (Манаус, Бразилия)
Главный судья: Педру Проэнса (Лиссабон, Португалия); Бертину Миранда (Порту, Португалия); Жозе Тригу (Лиссабон, Португалия)-Качество видео: HDTVRip
Контейнер: MKV
Видео кодек: H.264
Аудио кодек: AC3
Видео: 3981 Кбит/сек; 1280*720 (16:9); в 50,000 кадров/сек; 0.086 Бит/(Пиксели*Кадры); AVC
Аудио: 192 Кбит/сек; 48,0 КГц; 16 бит; 2 канала; АС-3
Камерун
Вратари
1 Лоик Феджу Котон Спорт
16 Шарль Итанж Коньяспор
23 Самми Н’Джок Фетхиеспор
Защитники
2 Бенуа Ассу-Экотто Куинз Парк Рейнджерс
3 Николя Н’Кулу Марсель
4 Седрик Джёгуэ Котон Спорт
5 Дани Нункё Бешикташ
12 Анри Бедимо Лион
14 Орельен Шеджу Галатасарай
22 Аллан Ньом Гранада
Полузащитники
6 Алекс Сонг Барселона
7 Ландри Н’Гемо Бордо
11 Жан Макун Ренн
17 Стефан Мбиа Севилья
18 Эйонг Эно Антальяспор
20 Эдгар Салли Ланс
21 Жоэль Матип Шальке 04
Нападающие
8 Бенжамин Муканджо Нанси
9 Самюэль Это’о (к) Челси
10 Венсан Абубакар Лорьян
13 Эрик Шупо-Мотинг Майнц
15 Пьер Вебо Фенербахче
19 Фабрис Олинга Зюлте-Варегем
Главный тренер Фолькер Финке Германия-Хорватия
Вратари
1 Стипе Плетикоса Ростов
12 Оливер Зеленика Локомотива
23 Даниел Субашич Монако
Защитники
2 Шиме Врсалько Дженоа
3 Даниел Праньич Панатинаикос
5 Ведран Чорлука Локомотив (Москва)
6 Деян Ловрен Саутгемптон
11 Дарио Срна (к) Шахтёр (Донецк)
13 Гордон Шильденфельд Панатинаикос
21 Домагой Вида Динамо (Киев)
Полузащитники
4 Иван Перишич Вольфсбург
7 Иван Ракитич Севилья
8 Огнен Вукоевич Динамо (Киев)
10 Лука Модрич Реал Мадрид
14 Марцело Брозович Динамо (Загреб)
15 Милан Бадель Гамбург
19 Саммир Хетафе
20 Матео Ковачич Интернационале
Нападающие
9 Никица Елавич Халл Сити
16 Анте Ребич Фиорентина
17 Марио Манджукич Бавария
18 Ивица Олич Вольфсбург
22 Эдуардо Шахтёр (Донецк)
Главный тренер Нико Ковач Хорватия
Уникальный идентификатор : 204884241757232823014305727077633366341 (0x9A234506B0AA7532A8DFD25C50661945)
Формат : Matroska
Версия формата : Version 4 / Version 2
Размер файла : 3,14 Гбайт
Продолжительность : 1 ч. 41 м.
Общий поток : 4454 Кбит/сек
Дата кодирования : UTC 2014-06-19 12:16:06
Программа кодирования : mkvmerge v7.0.0 ('Where We Going') 64bit built on Jun 9 2014 15:16:27
Библиотека кодирования : libebml v1.3.0 + libmatroska v1.4.1
Видео
Идентификатор : 1
Формат : AVC
Формат/Информация : Advanced Video Codec
Профиль формата : [email protected]
Параметр CABAC формата : Да
Параметр ReFrames формата : 4 кадра
Параметр GOP формата : M=2, N=15
Идентификатор кодека : V_MPEG4/ISO/AVC
Продолжительность : 1 ч. 41 м.
Битрейт : 3981 Кбит/сек
Ширина : 1280 пикселей
Высота : 720 пикселей
Соотношение сторон : 16:9
Режим частоты кадров : Постоянный
Частота кадров : 50,000 кадров/сек
Цветовое пространство : YUV
Субдискретизация насыщенности : 4:2:0
Битовая глубина : 8 бит
Тип развёртки : Прогрессивная
Бит/(Пиксели*Кадры) : 0.086
Размер потока : 2,81 Гбайт (89%)
Default : Да
Forced : Нет
Основные цвета : BT.709
Характеристики трансфера : BT.709
Коэффициенты матрицы : BT.709
DURATION : 01:41:01.560000000
NUMBER_OF_FRAMES : 303078
NUMBER_OF_BYTES : 3081199377
_STATISTICS_WRITING_APP : mkvmerge v7.0.0 ('Where We Going') 64bit built on Jun 9 2014 15:16:27
_STATISTICS_WRITING_DATE_UTC : 2014-06-19 12:16:06
_STATISTICS_TAGS : BPS DURATION NUMBER_OF_FRAMES NUMBER_OF_BYTES
Аудио
Идентификатор : 2
Формат : AC-3
Формат/Информация : Audio Coding 3
Расширение режима : CM (complete main)
Параметр Endianness формата : Big
Идентификатор кодека : A_AC3
Продолжительность : 1 ч. 41 м.
Вид битрейта : Постоянный
Битрейт : 384 Кбит/сек
Каналы : 6 каналов
Расположение каналов : Front: L C R, Side: L R, LFE
Частота : 48,0 КГц
Битовая глубина : 16 бит
Метод сжатия : С потерями
Размер потока : 277 Мбайт (9%)
Язык : Russian
Default : Да
Forced : Нет
DURATION : 01:41:01.548000000
NUMBER_OF_FRAMES : 189423
NUMBER_OF_BYTES : 290953728
_STATISTICS_WRITING_APP : mkvmerge v7.0.0 ('Where We Going') 64bit built on Jun 9 2014 15:16:27
_STATISTICS_WRITING_DATE_UTC : 2014-06-19 12:16:06
_STATISTICS_TAGS : BPS DURATION NUMBER_OF_FRAMES NUMBER_OF_BYTES
Download / Скачать

Хотите скачать бесплатно? Зарегистрируйтесь на сайте (ссылка на регистрацию). Pirat.ca - самый быстрый торрент трекер в рунете!

Как скачивать  ·   Что такое торрент  ·   Рейтинг и ограничения

Показать сообщения:    
Ответить на тему

Текущее время: Сегодня 04:28

Часовой пояс: GMT + 4



Вы не можете начинать темы
Вы не можете отвечать на сообщения
Вы не можете редактировать свои сообщения
Вы не можете удалять свои сообщения
Вы не можете голосовать в опросах
Вы не можете прикреплять файлы к сообщениям
Вы не можете скачивать файлы

▼ Вниз