ML
     
  Уважаемый Гость!
Вы можете поддержать проект и зарегистрироваться у наших партнеров - онлайн-стратегия MyLands. При регистрации в игре Вы получите код, который сможете активировать после регистрации на pirat.ca и получить 1000 дублонов.

Ваш код:
f612af22ea70acf5cbe90707ac5a076d215f8f7f
 
     

Чемпионат Мира 2014 / FIFA 2014 / Колумбия - Кот-д'Ивуар / Группа С. 2-й тур [19.06.2014, Спорт 1 HD, Футбол, H.264, 50fps, HDTVRip/720p]

Ответить на тему
 
Автор
Сообщение

Пост 30-Июн-2014 15:38

[Q] 

UcrusPazzo

Чемпионат Мира 2014 / FIFA 2014
Колумбия - Кот-д'Ивуар / Группа С. 2-й тур
-Год выпуска: 19.06.2014
Вид спорта: Футбол
Участники: Колумбия - Кот-д'Ивуар
Продолжительность: 01:56:18
Комментарий: русский (Алексей Осин)-Автор рипа / записи: Striker
-Описание:
19 июня 2014 года, четверг. 20:00 мск
Группа C. 2-й тур
Стадион: Манэ Гарринча - Национальный (Бразилиа, Бразилия)
Главный судья: Ховард Уэбб (Ротерхем, Сауз-Йоркшир, Англия); Майкл Малларки (Англия); Даррен Кэнн (Англия)-Качество видео: HDTVRip
Контейнер: MKV
Видео кодек: H.264
Аудио кодек: AC3
Видео: 3977 Кбит/сек; 1280*720 (16:9); в 50,000 кадров/сек; 0.086 Бит/(Пиксели*Кадры); AVC
Аудио: 192 Кбит/сек; 48,0 КГц; 16 бит; 2 канала; АС-3
Колумбия
Вратари

1 Давид Оспина Ницца
12 Камило Варгас Санта-Фе
22 Фарид Мондрагон Депортиво Кали
Защитники
2 Кристиан Сапата Милан
3 Марио Йепес (к) Аталанта
4 Сантьяго Ариас ПСВ
7 Пабло Армеро Вест Хэм Юнайтед
16 Эдер Альварес Ривер Плейт
18 Хуан Суньига Наполи
23 Карлос Вальдес Сан-Лоренсо
Полузащитники
5 Карлос Карбонеро[7] Ривер Плейт
6 Карлос Санчес Эльче
8 Абель Агилар Тулуза
10 Хамес Родригес Монако
11 Хуан Куадрадо Фиорентина
13 Фредди Гуарин Интернационале
15 Александр Мехия Атлетико Насьональ
20 Хуан Кинтеро Порту
Нападающие
9 Теофило Гутьеррес Ривер Плейт
14 Виктор Ибарбо Кальяри
17 Карлос Бакка Севилья
19 Адриан Рамос Боруссия (Дортмунд)
21 Джексон Мартинес Порту
Главный тренер Хосе Пекерман Аргентина-Кот-д’Ивуар
Вратари

1 Бубакар Барри Локерен
16 Сильвен Гбоуо Севе Спорт
23 Сайуба Манде Стабек
Защитники
2 Усман Вьера Ризеспор
3 Артур Бока Штутгарт
4 Коло Туре Ливерпуль
5 Дидье Зокора Трабзонспор
7 Жан-Даниэль Акпа-Акпро
17 Серж Орье Тулуза
18 Констант Джакпа Айнтрахт (Франкфурт-на-Майне)
22 Сол Бамба Трабзонспор
Полузащитники
6 Матис Болли Фортуна (Дюссельдорф)
9 Шейк Тьоте Ньюкасл Юнайтед
13 Дидье Я Конан Ганновер 96
14 Исмаэль Дьоманде Сент-Этьен
15 Макс Градель Сент-Этьен
19 Яя Туре Манчестер Сити
20 Серей Ди Базель
Нападающие
8 Саломон Калу Лилль
10 Жервиньо Рома
11 Дидье Дрогба (к) Галатасарай
12 Вильфрид Бони Суонси Сити
21 Джованни Сио Базель
Главный тренер Сабри Лямуши Франция
Общее
Уникальный идентификатор : 178621822809699508299394667280206602776 (0x86614FCD57999C3381C588226B7B2218)
Формат : Matroska
Версия формата : Version 4 / Version 2
Размер файла : 3,46 Гбайт
Продолжительность : 1 ч. 56 м.
Общий поток : 4254 Кбит/сек
Дата кодирования : UTC 2014-06-19 18:26:05
Программа кодирования : mkvmerge v7.0.0 ('Where We Going') 64bit built on Jun 9 2014 15:16:27
Библиотека кодирования : libebml v1.3.0 + libmatroska v1.4.1
Видео
Идентификатор : 1
Формат : AVC
Формат/Информация : Advanced Video Codec
Профиль формата : [email protected]
Параметр CABAC формата : Да
Параметр ReFrames формата : 4 кадра
Параметр GOP формата : M=2, N=15
Идентификатор кодека : V_MPEG4/ISO/AVC
Продолжительность : 1 ч. 56 м.
Битрейт : 3977 Кбит/сек
Ширина : 1280 пикселей
Высота : 720 пикселей
Соотношение сторон : 16:9
Режим частоты кадров : Постоянный
Частота кадров : 50,000 кадров/сек
Цветовое пространство : YUV
Субдискретизация насыщенности : 4:2:0
Битовая глубина : 8 бит
Тип развёртки : Прогрессивная
Бит/(Пиксели*Кадры) : 0.086
Размер потока : 3,23 Гбайт (93%)
Default : Да
Forced : Нет
Основные цвета : BT.709
Характеристики трансфера : BT.709
Коэффициенты матрицы : BT.709
DURATION : 01:56:18.480000000
NUMBER_OF_FRAMES : 348924
NUMBER_OF_BYTES : 3540102938
_STATISTICS_WRITING_APP : mkvmerge v7.0.0 ('Where We Going') 64bit built on Jun 9 2014 15:16:27
_STATISTICS_WRITING_DATE_UTC : 2014-06-19 18:26:05
_STATISTICS_TAGS : BPS DURATION NUMBER_OF_FRAMES NUMBER_OF_BYTES
Аудио
Идентификатор : 2
Формат : AC-3
Формат/Информация : Audio Coding 3
Расширение режима : CM (complete main)
Параметр Endianness формата : Big
Идентификатор кодека : A_AC3
Продолжительность : 1 ч. 56 м.
Вид битрейта : Постоянный
Битрейт : 192 Кбит/сек
Каналы : 2 канала
Расположение каналов : Front: L R
Частота : 48,0 КГц
Битовая глубина : 16 бит
Метод сжатия : С потерями
Размер потока : 160 Мбайт (5%)
Язык : Russian
Default : Да
Forced : Нет
DURATION : 01:56:18.444000000
NUMBER_OF_FRAMES : 218074
NUMBER_OF_BYTES : 167480832
_STATISTICS_WRITING_APP : mkvmerge v7.0.0 ('Where We Going') 64bit built on Jun 9 2014 15:16:27
_STATISTICS_WRITING_DATE_UTC : 2014-06-19 18:26:05
_STATISTICS_TAGS : BPS DURATION NUMBER_OF_FRAMES NUMBER_OF_BYTES
Download / Скачать

Хотите скачать бесплатно? Зарегистрируйтесь на сайте (ссылка на регистрацию). Pirat.ca - самый быстрый торрент трекер в рунете!

Как скачивать  ·   Что такое торрент  ·   Рейтинг и ограничения

Показать сообщения:    
Ответить на тему

Текущее время: Сегодня 00:25

Часовой пояс: GMT + 4



Вы не можете начинать темы
Вы не можете отвечать на сообщения
Вы не можете редактировать свои сообщения
Вы не можете удалять свои сообщения
Вы не можете голосовать в опросах
Вы не можете прикреплять файлы к сообщениям
Вы не можете скачивать файлы

▼ Вниз