ML
     
  Уважаемый Гость!
Вы можете поддержать проект и зарегистрироваться у наших партнеров - онлайн-стратегия MyLands. При регистрации в игре Вы получите код, который сможете активировать после регистрации на pirat.ca и получить 1000 дублонов.

Ваш код:
c89b4b6523eaac3173e9a9c062ac1a19db575961
 
     

Чемпионат Мира 2014 / FIFA 2014 / Уругвай – Англия / Группа D. 2-й тур [19.06.2014, Спорт 1 HD, Футбол, H.264, 50fps, HDTVRip/720p]

Ответить на тему
 
Автор
Сообщение

Пост 30-Июн-2014 15:39

[Q] 

UcrusPazzo

Чемпионат Мира 2014 / FIFA 2014
Уругвай – Англия / Группа D. 2-й тур
-Год выпуска: 19.06.2014
Вид спорта: Футбол
Участники: Уругвай – Англия
Продолжительность: 01:52:19
Комментарий: русский (Роман Трушечкин)-Автор рипа / записи: Striker
-Описание:
19 июня 2014 года, четверг. 23:00 мск
Группа D. 2-й тур
Стадион: Арена Сан-Паулу - Коринтианс (Сан-Паулу, Бразилия) Зрителей: 62575 (вместимость – 65807)
Главный судья: Карлос Веласко Карбальо (Мадрид, Испания); Роберто Алонсо Фернандес (Испания); Хуан Юсте Хименес (Алькоркон, Испания)-Качество видео: HDTVRip
Контейнер: MKV
Видео кодек: H.264
Аудио кодек: AC3
Видео: 3983 Кбит/сек; 1280*720 (16:9); в 50,000 кадров/сек; 0.086 Бит/(Пиксели*Кадры); AVC
Аудио: 192 Кбит/сек; 48,0 КГц; 16 бит; 2 канала; АС-3
Уругвай
Вратари

1 Фернандо Муслера Галатасарай
12 Родриго Муньос Либертад
23 Мартин Сильва Васко да Гама
Защитники
2 Диего Лугано (к) Вест Бромвич Альбион
3 Диего Годин Атлетико Мадрид
4 Хорхе Фусиле Порту
13 Хосе Мария Хименес Атлетико Мадрид
16 Максимильяно Перейра Бенфика (Лиссабон)
19 Себастьян Коатес Ливерпуль
22 Мартин Касерес Ювентус
Полузащитники
5 Вальтер Гаргано Парма
6 Альваро Перейра Сан-Паулу
7 Кристиан Родригес Атлетико Мадрид
14 Николас Лодейро Ботафого
15 Диего Перес Болонья
17 Эхидио Аревало Риос Монаркас Морелия
18 Гастон Рамирес Саутгемптон
20 Альваро Гонсалес Лацио
Нападающие
8 Абель Эрнандес Палермо
9 Луис Суарес Ливерпуль
10 Диего Форлан Сересо Осака
11 Кристиан Стуани Эспаньол
21 Эдинсон Кавани Пари Сен-Жермен
Главный тренер Оскар Табарес Уругвай-Англия
Вратари

1 Джо Харт Манчестер Сити
13 Бен Фостер Вест Бромвич Альбион
22 Фрейзер Форстер Селтик
Защитники
2 Глен Джонсон Ливерпуль
3 Лейтон Бейнс Эвертон
5 Гари Кэхилл Челси
6 Фил Джагелка Эвертон
12 Крис Смоллинг Манчестер Юнайтед
16 Фил Джонс Манчестер Юнайтед
23 Люк Шоу Саутгемптон
Полузащитники
4 Стивен Джеррард (к) Ливерпуль
7 Джек Уилшир Арсенал
8 Фрэнк Лэмпард Челси
14 Джордан Хендерсон Ливерпуль
15 Алекс Окслейд-Чемберлен Арсенал
17 Джеймс Милнер Манчестер Сити
19 Рахим Стерлинг Ливерпуль
20 Адам Лаллана Саутгемптон
21 Росс Баркли Эвертон
Нападающие
9 Дэниел Старридж Ливерпуль
10 Уэйн Руни Манчестер Юнайтед
11 Дэнни Уэлбек Манчестер Юнайтед
18 Рики Ламберт Ливерпуль
Главный тренер Рой Ходжсон Англия
Общее
Уникальный идентификатор : 194180204520897870515210596636389525731 (0x9215BF3EA1347E8CB4F0F68E19CFC8E3)
Формат : Matroska
Версия формата : Version 4 / Version 2
Размер файла : 3,34 Гбайт
Продолжительность : 1 ч. 52 м.
Общий поток : 4259 Кбит/сек
Дата кодирования : UTC 2014-06-19 21:15:42
Программа кодирования : mkvmerge v7.0.0 ('Where We Going') 64bit built on Jun 9 2014 15:16:27
Библиотека кодирования : libebml v1.3.0 + libmatroska v1.4.1
Видео
Идентификатор : 1
Формат : AVC
Формат/Информация : Advanced Video Codec
Профиль формата : [email protected]
Параметр CABAC формата : Да
Параметр ReFrames формата : 4 кадра
Параметр GOP формата : M=2, N=15
Идентификатор кодека : V_MPEG4/ISO/AVC
Продолжительность : 1 ч. 52 м.
Битрейт : 3983 Кбит/сек
Ширина : 1280 пикселей
Высота : 720 пикселей
Соотношение сторон : 16:9
Режим частоты кадров : Постоянный
Частота кадров : 50,000 кадров/сек
Цветовое пространство : YUV
Субдискретизация насыщенности : 4:2:0
Битовая глубина : 8 бит
Тип развёртки : Прогрессивная
Бит/(Пиксели*Кадры) : 0.086
Размер потока : 3,12 Гбайт (94%)
Default : Да
Forced : Нет
Основные цвета : BT.709
Характеристики трансфера : BT.709
Коэффициенты матрицы : BT.709
DURATION : 01:52:19.460000000
NUMBER_OF_FRAMES : 336973
NUMBER_OF_BYTES : 3423672634
_STATISTICS_WRITING_APP : mkvmerge v7.0.0 ('Where We Going') 64bit built on Jun 9 2014 15:16:27
_STATISTICS_WRITING_DATE_UTC : 2014-06-19 21:15:42
_STATISTICS_TAGS : BPS DURATION NUMBER_OF_FRAMES NUMBER_OF_BYTES
Аудио
Идентификатор : 2
Формат : AC-3
Формат/Информация : Audio Coding 3
Расширение режима : CM (complete main)
Параметр Endianness формата : Big
Идентификатор кодека : A_AC3
Продолжительность : 1 ч. 52 м.
Вид битрейта : Постоянный
Битрейт : 192 Кбит/сек
Каналы : 2 канала
Расположение каналов : Front: L R
Частота : 48,0 КГц
Битовая глубина : 16 бит
Метод сжатия : С потерями
Размер потока : 154 Мбайт (5%)
Язык : Russian
Default : Да
Forced : Нет
DURATION : 01:52:19.424000000
NUMBER_OF_FRAMES : 210604
NUMBER_OF_BYTES : 161743872
_STATISTICS_WRITING_APP : mkvmerge v7.0.0 ('Where We Going') 64bit built on Jun 9 2014 15:16:27
_STATISTICS_WRITING_DATE_UTC : 2014-06-19 21:15:42
_STATISTICS_TAGS : BPS DURATION NUMBER_OF_FRAMES NUMBER_OF_BYTES
Download / Скачать

Хотите скачать бесплатно? Зарегистрируйтесь на сайте (ссылка на регистрацию). Pirat.ca - самый быстрый торрент трекер в рунете!

Как скачивать  ·   Что такое торрент  ·   Рейтинг и ограничения

Показать сообщения:    
Ответить на тему

Текущее время: Сегодня 22:30

Часовой пояс: GMT + 4



Вы не можете начинать темы
Вы не можете отвечать на сообщения
Вы не можете редактировать свои сообщения
Вы не можете удалять свои сообщения
Вы не можете голосовать в опросах
Вы не можете прикреплять файлы к сообщениям
Вы не можете скачивать файлы

▼ Вниз