ML
     
  Уважаемый Гость!
Вы можете поддержать проект и зарегистрироваться у наших партнеров - онлайн-стратегия MyLands. При регистрации в игре Вы получите код, который сможете активировать после регистрации на pirat.ca и получить 1000 дублонов.

Ваш код:
5af7de75d3db09b6a37bc8bab71b0e87ccde73d6
 
     

Чемпионат Мира 2014 / FIFA 2014 / Япония – Греция / Группа C. 2-й тур [20.06.2014, Спорт 1 HD, Футбол, H.264, 50fps, HDTVRip/720p]

Ответить на тему
 
Автор
Сообщение

Пост 30-Июн-2014 15:40

[Q] 

UcrusPazzo

Чемпионат Мира 2014 / FIFA 2014
Япония – Греция / Группа C. 2-й тур
-Год выпуска: 20.06.2014
Вид спорта: Футбол
Участники: Япония – Греция
Продолжительность: 01:55:40
Комментарий: русский (Александр Неценко)-Автор рипа / записи: Striker
-Описание:
20 июня 2014 года, пятница. 02:00 мск
Группа C. 2-й тур
Стадион: Арена дас Дунас (Натал, Бразилия) Зрителей: 39485 (вместимость – 42086)
Главный судья: Хоэль Агилар Чикас (Сан-Сальвадор, Сальвадор); Вильям Торрес Мехия (Сальвадор); Хуан Сумба (Сальвадор)-Качество видео: HDTVRip
Контейнер: MKV
Видео кодек: H.264
Аудио кодек: AC3
Видео: 3949 Кбит/сек; 1280*720 (16:9); в 50,000 кадров/сек; 0.086 Бит/(Пиксели*Кадры); AVC
Аудио: 192 Кбит/сек; 48,0 КГц; 16 бит; 2 канала; АС-3
Япония
Вратари

1 Эйдзи Кавасима Стандард
12 Сюсаку Нисикава Урава Ред Даймондс
23 Сюити Гонда Токио
Защитники
2 Ацуто Утида Шальке 04
3 Готоку Сакаи Штутгарт
5 Юто Нагатомо Интернационале
6 Масато Морисигэ Токио
15 Ясуюки Конно Гамба Осака
19 Масахико Иноха Джубило Ивата
21 Хироки Сакаи Ганновер 96
22 Мая Ёсида Саутгемптон
Полузащитники
4 Кэйсукэ Хонда Милан
7 Ясухито Эндо Гамба Осака
8 Хироси Киётакэ Нюрнберг
10 Синдзи Кагава Манчестер Юнайтед
14 Тосихиро Аояма Санфречче Хиросима
16 Хотару Ямагути Сересо Осака
17 Макото Хасэбэ (к) Нюрнберг
Нападающие
9 Синдзи Окадзаки Майнц 05
11 Ёитиро Какитани Сересо Осака
13 Ёсито Окубо Кавасаки Фронтале
18 Юя Осако Мюнхен 1860
20 Манабу Сайто Иокогама Ф. Маринос
Главный тренер Альберто Дзаккерони Италия-Греция
Вратари

1 Орестис Карнезис Гранада
12 Панайотис Гликос ПАОК
13 Стефанос Капино Панатинаикос
Защитники
2 Иоаннис Маниатис Олимпиакос (Пирей)
3 Йоргос Цавелас ПАОК
4 Костас Манолас Олимпиакос (Пирей)
5 Вангелис Морас Эллас Верона
11 Лукас Винтра Леванте
15 Василис Торосидис Рома
19 Сократис Папастатопулос Боруссия (Дортмунд)
20 Хосе Холебас Олимпиакос (Пирей)
Полузащитники
6 Александрос Циолис Кайсериспор
8 Панайотис Коне Болонья
10 Йоргос Карагунис (к) Фулхэм
16 Лазарос Христодулопулос Болонья
18 Иоаннис Фетфацидис Дженоа
21 Костас Кацуранис ПАОК
22 Андреас Самарис Олимпиакос (Пирей)
23 Панайотис Тахцидис Торино
Нападающие
7 Йоргос Самарас Селтик
9 Константинос Митроглу Фулхэм
14 Димитрис Салпингидис ПАОК
17 Теофанис Гекас Коньяспор
Главный тренер Фернанду Сантуш Португалия
Общее
Уникальный идентификатор : 245835192330013054778267502157420043614 (0xB8F222C5B4C791C6832F93B566541D5E)
Формат : Matroska
Версия формата : Version 4 / Version 2
Размер файла : 3,41 Гбайт
Продолжительность : 1 ч. 55 м.
Общий поток : 4225 Кбит/сек
Дата кодирования : UTC 2014-06-20 04:23:11
Программа кодирования : mkvmerge v7.0.0 ('Where We Going') 64bit built on Jun 9 2014 15:16:27
Библиотека кодирования : libebml v1.3.0 + libmatroska v1.4.1
Видео
Идентификатор : 1
Формат : AVC
Формат/Информация : Advanced Video Codec
Профиль формата : [email protected]
Параметр CABAC формата : Да
Параметр ReFrames формата : 4 кадра
Параметр GOP формата : M=2, N=15
Идентификатор кодека : V_MPEG4/ISO/AVC
Продолжительность : 1 ч. 55 м.
Битрейт : 3949 Кбит/сек
Ширина : 1280 пикселей
Высота : 720 пикселей
Соотношение сторон : 16:9
Режим частоты кадров : Постоянный
Частота кадров : 50,000 кадров/сек
Цветовое пространство : YUV
Субдискретизация насыщенности : 4:2:0
Битовая глубина : 8 бит
Тип развёртки : Прогрессивная
Бит/(Пиксели*Кадры) : 0.086
Размер потока : 3,19 Гбайт (93%)
Default : Да
Forced : Нет
Основные цвета : BT.709
Характеристики трансфера : BT.709
Коэффициенты матрицы : BT.709
DURATION : 01:55:39.640000000
NUMBER_OF_FRAMES : 346982
NUMBER_OF_BYTES : 3496050665
_STATISTICS_WRITING_APP : mkvmerge v7.0.0 ('Where We Going') 64bit built on Jun 9 2014 15:16:27
_STATISTICS_WRITING_DATE_UTC : 2014-06-20 04:23:11
_STATISTICS_TAGS : BPS DURATION NUMBER_OF_FRAMES NUMBER_OF_BYTES
Аудио
Идентификатор : 2
Формат : AC-3
Формат/Информация : Audio Coding 3
Расширение режима : CM (complete main)
Параметр Endianness формата : Big
Идентификатор кодека : A_AC3
Продолжительность : 1 ч. 55 м.
Вид битрейта : Постоянный
Битрейт : 192 Кбит/сек
Каналы : 2 канала
Расположение каналов : Front: L R
Частота : 48,0 КГц
Битовая глубина : 16 бит
Метод сжатия : С потерями
Размер потока : 159 Мбайт (5%)
Язык : Russian
Default : Да
Forced : Нет
DURATION : 01:55:39.604000000
NUMBER_OF_FRAMES : 216860
NUMBER_OF_BYTES : 166548480
_STATISTICS_WRITING_APP : mkvmerge v7.0.0 ('Where We Going') 64bit built on Jun 9 2014 15:16:27
_STATISTICS_WRITING_DATE_UTC : 2014-06-20 04:23:11
_STATISTICS_TAGS : BPS DURATION NUMBER_OF_FRAMES NUMBER_OF_BYTES
Download / Скачать

Хотите скачать бесплатно? Зарегистрируйтесь на сайте (ссылка на регистрацию). Pirat.ca - самый быстрый торрент трекер в рунете!

Как скачивать  ·   Что такое торрент  ·   Рейтинг и ограничения

Показать сообщения:    
Ответить на тему

Текущее время: Сегодня 14:12

Часовой пояс: GMT + 4



Вы не можете начинать темы
Вы не можете отвечать на сообщения
Вы не можете редактировать свои сообщения
Вы не можете удалять свои сообщения
Вы не можете голосовать в опросах
Вы не можете прикреплять файлы к сообщениям
Вы не можете скачивать файлы

▼ Вниз