ML
     
  Уважаемый Гость!
Вы можете поддержать проект и зарегистрироваться у наших партнеров - онлайн-стратегия MyLands. При регистрации в игре Вы получите код, который сможете активировать после регистрации на pirat.ca и получить 1000 дублонов.

Ваш код:
cc3be08b7507661c03e0a2f582d0da3a659ea55a
 
     

Чемпионат Мира 2014 / FIFA 2014 / Италия – Коста-Рика / Группа D. 2-й тур [20.06.2014, Спорт 1 HD, Футбол, H.264, 50fps, HDTVRip/720p]

Ответить на тему
 
Автор
Сообщение

Пост 30-Июн-2014 15:40

[Q] 

UcrusPazzo

Чемпионат Мира 2014 / FIFA 2014
Италия – Коста-Рика / Группа D. 2-й тур
-Год выпуска: 20.06.2014
Вид спорта: Футбол
Участники: Италия – Коста-Рика
Продолжительность: 01:54:12
Комментарий: русский (Алекснадр Гришин)-Автор рипа / записи: Striker
-Описание:
20 июня 2014 года, пятница. 20:00 мск
Группа D. 2-й тур
Стадион: Арена Пернамбуку (Ресифи, Бразилия)
Главный судья: Энрике Оссес Сенкович (Сантьяго, Чили); Ассистент: Карлос Астроса Карденас (Чили); Ассистент: Серхио Роман (Чили)-Качество видео: HDTVRip
Контейнер: MKV
Видео кодек: H.264
Аудио кодек: AC3
Видео: 4008 Кбит/сек; 1280*720 (16:9); в 50,000 кадров/сек; 0.087 Бит/(Пиксели*Кадры); AVC
Аудио: 192 Кбит/сек; 48,0 КГц; 16 бит; 2 канала; АС-3
Италия
Вратари

1 Джанлуиджи Буффон (к) Ювентус
12 Сальваторе Сиригу Пари Сен-Жермен
13 Маттиа Перин Дженоа
Защитники
2 Маттия Де Шильо Милан
3 Джорджо Кьеллини Ювентус
4 Маттео Дармиан Торино
7 Иньяцио Абате Милан
15 Андреа Бардзальи Ювентус
19 Леонардо Бонуччи Ювентус
20 Гиэль Палетта Парма
Полузащитники
5 Тиагу Мотта Пари Сен-Жермен
6 Антонио Кандрева Лацио
8 Клаудио Маркизио Ювентус
14 Альберто Аквилани Фиорентина
16 Даниеле Де Росси Рома
18 Марко Пароло Парма
21 Андреа Пирло Ювентус
23 Марко Верратти Пари Сен-Жермен
Нападающие
9 Марио Балотелли Милан
10 Антонио Кассано Парма
11 Алессио Черчи Торино
17 Чиро Иммобиле Боруссия (Дортмунд)
22 Лоренцо Инсинье
Главный тренер Чезаре Пранделли Италия-Коста-Рика
Вратари

1 Кейлор Навас Леванте
18 Патрик Пембертон Алахуэленсе
23 Даниэль Камбронеро Эредиано
Защитники
2 Джонни Акоста Алахуэленсе
3 Джанкарло Гонсалес Коламбус Крю
4 Майкл Уманья Саприсса
6 Оскар Дуарте Брюгге
8 Давид Майри[8] Эредиано
12 Уэйлон Фрэнсис Коламбус Крю
15 Хуниор Диас Майнц 05
16 Кристиан Гамбоа Русенборг
19 Рой Миллер Нью-Йорк Ред Буллз
Полузащитники
5 Сельсо Борхес АИК
7 Кристиан Боланьос Копенгаген
11 Микаэль Баррантес Олесунн
13 Эстебан Гранадос Эредиано
17 Ельцин Техеда Саприсса
20 Диего Кальво Волеренга
22 Хосе Мигель Куберо Эредиано
Нападающие
9 Хоэль Кэмпбелл Олимпиакос (Пирей)
10 Брайан Руис (к) ПСВ
14 Рэндалл Бренес Картагинес
21 Маркос Уренья Кубань
Главный тренер Хорхе Луис Пинто Колумбия
Общее
Уникальный идентификатор : 191092404858348223701203316605663424443 (0x8FC30EF7A37FA534A731360BDFB5AFBB)
Формат : Matroska
Версия формата : Version 4 / Version 2
Размер файла : 3,42 Гбайт
Продолжительность : 1 ч. 54 м.
Общий поток : 4285 Кбит/сек
Дата кодирования : UTC 2014-06-20 18:21:54
Программа кодирования : mkvmerge v7.0.0 ('Where We Going') 64bit built on Jun 9 2014 15:16:27
Библиотека кодирования : libebml v1.3.0 + libmatroska v1.4.1
Видео
Идентификатор : 1
Формат : AVC
Формат/Информация : Advanced Video Codec
Профиль формата : [email protected]
Параметр CABAC формата : Да
Параметр ReFrames формата : 4 кадра
Параметр GOP формата : M=2, N=15
Идентификатор кодека : V_MPEG4/ISO/AVC
Продолжительность : 1 ч. 54 м.
Битрейт : 4008 Кбит/сек
Ширина : 1280 пикселей
Высота : 720 пикселей
Соотношение сторон : 16:9
Режим частоты кадров : Постоянный
Частота кадров : 50,000 кадров/сек
Цветовое пространство : YUV
Субдискретизация насыщенности : 4:2:0
Битовая глубина : 8 бит
Тип развёртки : Прогрессивная
Бит/(Пиксели*Кадры) : 0.087
Размер потока : 3,20 Гбайт (94%)
Default : Да
Forced : Нет
Основные цвета : BT.709
Характеристики трансфера : BT.709
Коэффициенты матрицы : BT.709
DURATION : 01:54:11.720000000
NUMBER_OF_FRAMES : 342586
NUMBER_OF_BYTES : 3502630751
_STATISTICS_WRITING_APP : mkvmerge v7.0.0 ('Where We Going') 64bit built on Jun 9 2014 15:16:27
_STATISTICS_WRITING_DATE_UTC : 2014-06-20 18:21:54
_STATISTICS_TAGS : BPS DURATION NUMBER_OF_FRAMES NUMBER_OF_BYTES
Аудио
Идентификатор : 2
Формат : AC-3
Формат/Информация : Audio Coding 3
Расширение режима : CM (complete main)
Параметр Endianness формата : Big
Идентификатор кодека : A_AC3
Продолжительность : 1 ч. 54 м.
Вид битрейта : Постоянный
Битрейт : 192 Кбит/сек
Каналы : 2 канала
Расположение каналов : Front: L R
Частота : 48,0 КГц
Битовая глубина : 16 бит
Метод сжатия : С потерями
Размер потока : 157 Мбайт (4%)
Язык : Russian
Default : Да
Forced : Нет
DURATION : 01:54:11.684000000
NUMBER_OF_FRAMES : 214111
NUMBER_OF_BYTES : 164437248
_STATISTICS_WRITING_APP : mkvmerge v7.0.0 ('Where We Going') 64bit built on Jun 9 2014 15:16:27
_STATISTICS_WRITING_DATE_UTC : 2014-06-20 18:21:54
_STATISTICS_TAGS : BPS DURATION NUMBER_OF_FRAMES NUMBER_OF_BYTES
Download / Скачать

Хотите скачать бесплатно? Зарегистрируйтесь на сайте (ссылка на регистрацию). Pirat.ca - самый быстрый торрент трекер в рунете!

Как скачивать  ·   Что такое торрент  ·   Рейтинг и ограничения

Показать сообщения:    
Ответить на тему

Текущее время: Сегодня 05:05

Часовой пояс: GMT + 4



Вы не можете начинать темы
Вы не можете отвечать на сообщения
Вы не можете редактировать свои сообщения
Вы не можете удалять свои сообщения
Вы не можете голосовать в опросах
Вы не можете прикреплять файлы к сообщениям
Вы не можете скачивать файлы

▼ Вниз