ML
     
  Уважаемый Гость!
Вы можете поддержать проект и зарегистрироваться у наших партнеров - онлайн-стратегия MyLands. При регистрации в игре Вы получите код, который сможете активировать после регистрации на pirat.ca и получить 1000 дублонов.

Ваш код:
cc3be08b7507661c03e0a2f582d0da3a659ea55a
 
     

Чемпионат Мира 2014 / FIFA 2014 / Швейцария – Франция / Группа E. 2-й тур [20.06.2014, Спорт 1 HD, Футбол, H.264, 50fps, HDTVRip/720p]

Ответить на тему
 
Автор
Сообщение

Пост 30-Июн-2014 15:42

[Q] 

UcrusPazzo

Чемпионат Мира 2014 / FIFA 2014
Швейцария – Франция / Группа E. 2-й тур
-Год выпуска: 20.06.2014
Вид спорта: Футбол
Участники: Швейцария – Франция
Продолжительность: 01:58:31
Комментарий: русский (Владимир Стогниенко)-Автор рипа / записи: Striker
-Описание:
20 июня 2014 года, пятница. 23:00 мск
Группа E. 2-й тур
Стадион: Арена Фонте-Нова - Отавиу Мангабэйра (Салвадор, Бразилия) Зрителей: 51003 (вместимость – 52048)
Главный судья: Бьорн Куйперс (Олдензал, Нидерланды); Ассистент: Сандер ван Рукел (Олдензал, Нидерланды); Ассистент: Эрвин Зейнстра (Нидерланды)-Качество видео: HDTVRip
Контейнер: MKV
Видео кодек: H.264
Аудио кодек: AC3
Видео: 3976 Кбит/сек; 1280*720 (16:9); в 50,000 кадров/сек; 0.086 Бит/(Пиксели*Кадры); AVC
Аудио: 192 Кбит/сек; 48,0 КГц; 16 бит; 2 канала; АС-3
Швейцария
Вратари

1 Диего Бенальо Вольфсбург
12 Янн Зоммер Базель
21 Роман Бюрки Грассхоппер
Защитники
2 Штефан Лихтштайнер Ювентус
3 Рето Циглер Сассуоло
4 Филипп Сендерос Валенсия
5 Стив фон Берген Янг Бойз
6 Михаэль Ланг Грассхоппер
13 Рикардо Родригес Вольфсбург
20 Йоан Джуру Гамбург
22 Фабиан Шер Базель
Полузащитники
7 Транквилло Барнетта Айнтрахт (Франкфурт-на-Майне)
8 Гёкхан Инлер (к) Наполи
10 Гранит Джака Боруссия (Мёнхенгладбах)
11 Валон Бехрами Наполи
14 Валентин Штокер Базель
15 Блерим Джемайли Наполи
16 Желсон Фернандеш Фрайбург
23 Джердан Шакири Бавария
Нападающие
9 Харис Сеферович Реал Сосьедад
17 Марио Гавранович Цюрих
18 Адмир Мехмеди Фрайбург
19 Йосип Дрмич Нюрнберг
Главный тренер Оттмар Хитцфельд Германия-Франция
Вратари

1 Уго Льорис (к) Тоттенхэм Хотспур
16 Стефан Руффье[10] Сент-Этьен
23 Микаэль Ландро Бастия
Защитники
2 Матьё Дебюши Ньюкасл Юнайтед
3 Патрис Эвра Манчестер Юнайтед
4 Рафаэль Варан Реал Мадрид
5 Мамаду Сако Ливерпуль
13 Эльяким Мангала Порту
15 Бакари Санья Арсенал
17 Люка Динь Пари Сен-Жермен
21 Лоран Косельни Арсенал
Полузащитники
6 Йоан Кабай Пари Сен-Жермен
7 Реми Кабелля[11] Монпелье
8 Матьё Вальбуэна Марсель
11 Антуан Гризманн Реал Сосьедад
12 Рио Мавуба Лилль
14 Блез Матюиди Пари Сен-Жермен
18 Мусса Сиссоко Ньюкасл Юнайтед
19 Поль Погба Ювентус
22 Морган Шнедерлен[12] Саутгемптон
Нападающие
9 Оливье Жиру Арсенал
10 Карим Бензема Реал Мадрид
20 Лоик Реми Ньюкасл Юнайтед
Главный тренер Дидье Дешам Франция
Общее
Уникальный идентификатор : 240796507665212981850648839580989817218 (0xB527B8702C64B2BC8084DFEDE6448182)
Формат : Matroska
Версия формата : Version 4 / Version 2
Размер файла : 3,52 Гбайт
Продолжительность : 1 ч. 58 м.
Общий поток : 4252 Кбит/сек
Дата кодирования : UTC 2014-06-20 21:18:54
Программа кодирования : mkvmerge v7.0.0 ('Where We Going') 64bit built on Jun 9 2014 15:16:27
Библиотека кодирования : libebml v1.3.0 + libmatroska v1.4.1
Видео
Идентификатор : 1
Формат : AVC
Формат/Информация : Advanced Video Codec
Профиль формата : [email protected]
Параметр CABAC формата : Да
Параметр ReFrames формата : 4 кадра
Параметр GOP формата : M=2, N=15
Идентификатор кодека : V_MPEG4/ISO/AVC
Продолжительность : 1 ч. 58 м.
Битрейт : 3976 Кбит/сек
Ширина : 1280 пикселей
Высота : 720 пикселей
Соотношение сторон : 16:9
Режим частоты кадров : Постоянный
Частота кадров : 50,000 кадров/сек
Цветовое пространство : YUV
Субдискретизация насыщенности : 4:2:0
Битовая глубина : 8 бит
Тип развёртки : Прогрессивная
Бит/(Пиксели*Кадры) : 0.086
Размер потока : 3,29 Гбайт (93%)
Default : Да
Forced : Нет
Основные цвета : BT.709
Характеристики трансфера : BT.709
Коэффициенты матрицы : BT.709
DURATION : 01:58:31.440000000
NUMBER_OF_FRAMES : 355572
NUMBER_OF_BYTES : 3606468118
_STATISTICS_WRITING_APP : mkvmerge v7.0.0 ('Where We Going') 64bit built on Jun 9 2014 15:16:27
_STATISTICS_WRITING_DATE_UTC : 2014-06-20 21:18:54
_STATISTICS_TAGS : BPS DURATION NUMBER_OF_FRAMES NUMBER_OF_BYTES
Аудио
Идентификатор : 2
Формат : AC-3
Формат/Информация : Audio Coding 3
Расширение режима : CM (complete main)
Параметр Endianness формата : Big
Идентификатор кодека : A_AC3
Продолжительность : 1 ч. 58 м.
Вид битрейта : Постоянный
Битрейт : 192 Кбит/сек
Каналы : 2 канала
Расположение каналов : Front: L R
Частота : 48,0 КГц
Битовая глубина : 16 бит
Метод сжатия : С потерями
Размер потока : 163 Мбайт (5%)
Язык : Russian
Default : Да
Forced : Нет
DURATION : 01:58:31.404000000
NUMBER_OF_FRAMES : 222229
NUMBER_OF_BYTES : 170671872
_STATISTICS_WRITING_APP : mkvmerge v7.0.0 ('Where We Going') 64bit built on Jun 9 2014 15:16:27
_STATISTICS_WRITING_DATE_UTC : 2014-06-20 21:18:54
_STATISTICS_TAGS : BPS DURATION NUMBER_OF_FRAMES NUMBER_OF_BYTES
Download / Скачать

Хотите скачать бесплатно? Зарегистрируйтесь на сайте (ссылка на регистрацию). Pirat.ca - самый быстрый торрент трекер в рунете!

Как скачивать  ·   Что такое торрент  ·   Рейтинг и ограничения

Показать сообщения:    
Ответить на тему

Текущее время: Сегодня 05:04

Часовой пояс: GMT + 4



Вы не можете начинать темы
Вы не можете отвечать на сообщения
Вы не можете редактировать свои сообщения
Вы не можете удалять свои сообщения
Вы не можете голосовать в опросах
Вы не можете прикреплять файлы к сообщениям
Вы не можете скачивать файлы

▼ Вниз