ML
     
  Уважаемый Гость!
Вы можете поддержать проект и зарегистрироваться у наших партнеров - онлайн-стратегия MyLands. При регистрации в игре Вы получите код, который сможете активировать после регистрации на pirat.ca и получить 1000 дублонов.

Ваш код:
a6d1ef7ff63e237add5a4c8b21d8aa937c5e9b4b
 
     

Чемпионат Мира 2014 / FIFA 2014 / Аргентина – Иран / Группа F. 2-й тур [21.06.2014, Спорт 1 HD, Футбол, H.264, 50fps, HDTVRip/720p]

Ответить на тему
 
Автор
Сообщение

Пост 30-Июн-2014 15:43

[Q] 

UcrusPazzo

Чемпионат Мира 2014 / FIFA 2014
Аргентина – Иран / Группа F. 2-й тур
-Год выпуска: 21.07.2014
Вид спорта: Футбол
Участники: Аргентина – Иран
Продолжительность: 01:50:52
Комментарий: русский (Юрий Розанов)-Автор рипа / записи: Striker
-Описание:
21 июня 2014 года, суббота. 20:00 мск
Группа F. 2-й тур
Стадион: Минейрао - Губернатор Магальянс Пинту (Белу-Оризонти, Бразилия)
Главный судья: Милорад Мажич (Врбас, Сербия); Ассистент: Милован Ристич (Врбас, Сербия); Ассистент: Далибор Джурджевич (Сербия)-Качество видео: HDTVRip
Контейнер: MKV
Видео кодек: H.264
Аудио кодек: AC3
Видео: 3985 Кбит/сек; 1280*720 (16:9); в 50,000 кадров/сек; 0.086 Бит/(Пиксели*Кадры); AVC
Аудио: 192 Кбит/сек; 48,0 КГц; 16 бит; 2 канала; АС-3
Аргентина
Вратари

1 Серхио Ромеро Монако
12 Агустин Орион Бока Хуниорс
21 Мариано Андухар Катания
Защитники
2 Эсекьель Гарай Бенфика[14]
3 Уго Кампаньяро Интернационале
4 Пабло Сабалета Манчестер Сити
15 Мартин Демикелис Манчестер Сити
16 Маркос Рохо Спортинг
17 Федерико Фернандес Наполи
23 Хосе Басанта Монтеррей
Полузащитники
5 Фернандо Гаго Бока Хуниорс
6 Лукас Билья Лацио
7 Анхель Ди Мария Реал Мадрид
8 Энцо Перес Бенфика
11 Макси Родригес Ньюэллс Олд Бойз
13 Аугусто Фернандес Сельта
14 Хавьер Маскерано Барселона
19 Рикардо Альварес Интернационале
Нападающие
9 Гонсало Игуаин Наполи
10 Лионель Месси (к) Барселона
18 Родриго Паласио Интернационале
20 Серхио Агуэро Манчестер Сити
22 Эсекьель Лавесси Пари Сен-Жермен
Главный тренер Алехандро Сабелья Аргентина-Иран
Вратари

1 Рахман Ахмади Сепахан
12 Алиреза Хагиги Спортинг (Ковильян)
22 Даниэль Давари Айнтрахт (Брауншвейг)
Защитники
2 Хосро Хейдари Эстегляль
3 Ехсан Хаджсафи Сепахан
4 Джаляль Хоссейни Персеполис
5 Амир Хоссейн Садеги Эстегляль
13 Хоссейн Махини Персеполис
15 Педжман Монтазери Умм-Салаль
17 Ахмад Альнаме Нафт Тегеран
19 Хашем Бейкзаде Эстегляль
20 Стивен Бейташур Ванкувер Уайткэпс
23 Мехрдад Пулади Персеполис
Полузащитники
6 Джавад Некунам (к) Аль-Кувейт
7 Масуд Шоджаи Лас-Пальмас
8 Реза Хагиги Персеполис
11 Гасем Хададифар Зоб Ахан
14 Андраник Теймурян Эстегляль
18 Бахтияр Рахмани Фулад
21 Ашкан Дежага Фулхэм
Нападающие
9 Алиреза Джаханбахш НЕК
10 Карим Ансарифард Персеполис
16 Реза Гучаннеджад Чарльтон Атлетик
Главный тренер Карлуш Кейрош Португалия
Общее
Уникальный идентификатор : 184673704063414829413219427289049153049 (0x8AEEDC95BA4C08D9B5A1EDCD60413E19)
Формат : Matroska
Версия формата : Version 4 / Version 2
Размер файла : 3,30 Гбайт
Продолжительность : 1 ч. 50 м.
Общий поток : 4261 Кбит/сек
Дата кодирования : UTC 2014-06-21 18:13:00
Программа кодирования : mkvmerge v7.0.0 ('Where We Going') 64bit built on Jun 9 2014 15:16:27
Библиотека кодирования : libebml v1.3.0 + libmatroska v1.4.1
Видео
Идентификатор : 1
Формат : AVC
Формат/Информация : Advanced Video Codec
Профиль формата : [email protected]
Параметр CABAC формата : Да
Параметр ReFrames формата : 4 кадра
Параметр GOP формата : M=2, N=15
Идентификатор кодека : V_MPEG4/ISO/AVC
Продолжительность : 1 ч. 50 м.
Битрейт : 3985 Кбит/сек
Ширина : 1280 пикселей
Высота : 720 пикселей
Соотношение сторон : 16:9
Режим частоты кадров : Постоянный
Частота кадров : 50,000 кадров/сек
Цветовое пространство : YUV
Субдискретизация насыщенности : 4:2:0
Битовая глубина : 8 бит
Тип развёртки : Прогрессивная
Бит/(Пиксели*Кадры) : 0.086
Размер потока : 3,09 Гбайт (94%)
Default : Да
Forced : Нет
Основные цвета : BT.709
Характеристики трансфера : BT.709
Коэффициенты матрицы : BT.709
DURATION : 01:50:52.360000000
NUMBER_OF_FRAMES : 332618
NUMBER_OF_BYTES : 3381232381
_STATISTICS_WRITING_APP : mkvmerge v7.0.0 ('Where We Going') 64bit built on Jun 9 2014 15:16:27
_STATISTICS_WRITING_DATE_UTC : 2014-06-21 18:13:00
_STATISTICS_TAGS : BPS DURATION NUMBER_OF_FRAMES NUMBER_OF_BYTES
Аудио
Идентификатор : 2
Формат : AC-3
Формат/Информация : Audio Coding 3
Расширение режима : CM (complete main)
Параметр Endianness формата : Big
Идентификатор кодека : A_AC3
Продолжительность : 1 ч. 50 м.
Вид битрейта : Постоянный
Битрейт : 192 Кбит/сек
Каналы : 2 канала
Расположение каналов : Front: L R
Частота : 48,0 КГц
Битовая глубина : 16 бит
Метод сжатия : С потерями
Размер потока : 152 Мбайт (5%)
Язык : Russian
Default : Да
Forced : Нет
DURATION : 01:50:52.324000000
NUMBER_OF_FRAMES : 207883
NUMBER_OF_BYTES : 159654144
_STATISTICS_WRITING_APP : mkvmerge v7.0.0 ('Where We Going') 64bit built on Jun 9 2014 15:16:27
_STATISTICS_WRITING_DATE_UTC : 2014-06-21 18:13:00
_STATISTICS_TAGS : BPS DURATION NUMBER_OF_FRAMES NUMBER_OF_BYTES
Download / Скачать

Хотите скачать бесплатно? Зарегистрируйтесь на сайте (ссылка на регистрацию). Pirat.ca - самый быстрый торрент трекер в рунете!

Как скачивать  ·   Что такое торрент  ·   Рейтинг и ограничения

Reno-19

420

Пост 10-Окт-2014 07:23 (спустя 3 месяца 9 дней)

[Q] 

Ну вы блин даёте..... На любителя
[Профиль]  [ЛС] 

Reno-19

420

Пост 25-Окт-2014 16:59 (спустя 15 дней)

[Q] 

Сидов маловато..... SOS!!!
[Профиль]  [ЛС] 
Показать сообщения:    
Ответить на тему

Текущее время: Сегодня 13:38

Часовой пояс: GMT + 4



Вы не можете начинать темы
Вы не можете отвечать на сообщения
Вы не можете редактировать свои сообщения
Вы не можете удалять свои сообщения
Вы не можете голосовать в опросах
Вы не можете прикреплять файлы к сообщениям
Вы не можете скачивать файлы

▼ Вниз