ML
     
  Уважаемый Гость!
Вы можете поддержать проект и зарегистрироваться у наших партнеров - онлайн-стратегия MyLands. При регистрации в игре Вы получите код, который сможете активировать после регистрации на pirat.ca и получить 1000 дублонов.

Ваш код:
b70663c760e7cd2521b8e123786cdd788200e3bd
 
     

Чемпионат Мира 2014 / FIFA 2014 / Германия – Гана / Группа G. 2-й тур [21.06.2014, Спорт 1 HD, Футбол, H.264, 50fps, HDTVRip/720p]

Ответить на тему
 
Автор
Сообщение

Пост 30-Июн-2014 15:44

[Q] 

UcrusPazzo

Чемпионат Мира 2014 / FIFA 2014
Германия – Гана / Группа G. 2-й тур
-Год выпуска: 21.06.2014
Вид спорта: Футбол
Участники: Германия – Гана
Продолжительность: 01:57:00
Комментарий: русский (Александр Неценко)-Автор рипа / записи: Striker
-Описание:
21 июня 2014 года, суббота. 23:00 мск
Группа G. 2-й тур
Стадион: Кастелан (Форталеза, Бразилия)
Главный судья: Сандро Рикки (Посус-ди-Калдас, Бразилия); Ассистент: Эмерсон де Карвальо (Бразилия); Ассистент: Марсело Ван Гассе (Бразилия)-Качество видео: HDTVRip
Контейнер: MKV
Видео кодек: H.264
Аудио кодек: AC3
Видео: 3956 Кбит/сек; 1280*720 (16:9); в 50,000 кадров/сек; 0.086 Бит/(Пиксели*Кадры); AVC
Аудио: 192 Кбит/сек; 48,0 КГц; 16 бит; 2 канала; АС-3
Германия
Вратари

1 Мануэль Нойер Бавария
12 Рон-Роберт Цилер Ганновер 96
22 Роман Вайденфеллер Боруссия (Дортмунд)
Защитники
3 Маттиас Гинтер Фрайбург
4 Бенедикт Хёведес Шальке 04
5 Матс Хуммельс Боруссия (Дортмунд)
15 Эрик Дурм Боруссия (Дортмунд)
16 Филипп Лам (к) Бавария
17 Пер Мертезакер Арсенал
20 Жером Боатенг Бавария
21 Шкодран Мустафи[16] Сампдория
Полузащитники
2 Кевин Гросскройц Боруссия (Дортмунд)
6 Сами Хедира Реал Мадрид
7 Бастиан Швайнштайгер Бавария
8 Месут Озиль Арсенал
14 Юлиан Дракслер Шальке 04
18 Тони Кроос Бавария
19 Марио Гётце Бавария
23 Кристоф Крамер Боруссия (Мёнхенгладбах)
Нападающие
9 Андре Шюррле Челси
10 Лукас Подольски Арсенал
11 Мирослав Клозе Лацио
13 Томас Мюллер Бавария
Главный тренер Йоахим Лёв Германия-Гана
Вратари

1 Стивен Адамс Адуана Старз
12 Адам Куараси Стрёмсгодсет
16 Фатау Дауда Орландо Пайретс
Защитники
2 Самуэль Инкум Платаниас
4 Даниэль Опаре Стандард
15 Рашид Сумайла Мамелоди Сандаунз
19 Джонатан Менса Эвиан
21 Джон Бой Ренн
23 Харрисон Аффул Эсперанс (Тунис)
Полузащитники
5 Майкл Эссьен Милан
6 Африйе Аква Парма
7 Кристиан Атсу Витесс
8 Эммануэль Агеманг-Баду Удинезе
9 Кевин-Принс Боатенг Шальке 04
10 Андре Айю Марсель
11 Салли Мунтари Милан
14 Альберт Адома Мидлсбро
17 Мохаммед Рабиу Кубань
20 Квадво Асамоа Ювентус
22 Вакасо Мубарак Рубин
Нападающие
3 Асамоа Гьян (к) Аль-Айн
13 Джордан Айю Сошо
18 Маджид Уорис Валансьен[17]
Главный тренер Джеймс Квеси Аппиа Гана
Общее
Уникальный идентификатор : 190553973457277678099627423043335540873 (0x8F5B5C3FEB645395B2F0931CFA54D089)
Формат : Matroska
Версия формата : Version 4 / Version 2
Размер файла : 3,46 Гбайт
Продолжительность : 1 ч. 56 м.
Общий поток : 4232 Кбит/сек
Дата кодирования : UTC 2014-06-21 21:17:47
Программа кодирования : mkvmerge v7.0.0 ('Where We Going') 64bit built on Jun 9 2014 15:16:27
Библиотека кодирования : libebml v1.3.0 + libmatroska v1.4.1
Видео
Идентификатор : 1
Формат : AVC
Формат/Информация : Advanced Video Codec
Профиль формата : [email protected]
Параметр CABAC формата : Да
Параметр ReFrames формата : 4 кадра
Параметр GOP формата : M=2, N=15
Идентификатор кодека : V_MPEG4/ISO/AVC
Продолжительность : 1 ч. 56 м.
Битрейт : 3956 Кбит/сек
Ширина : 1280 пикселей
Высота : 720 пикселей
Соотношение сторон : 16:9
Режим частоты кадров : Постоянный
Частота кадров : 50,000 кадров/сек
Цветовое пространство : YUV
Субдискретизация насыщенности : 4:2:0
Битовая глубина : 8 бит
Тип развёртки : Прогрессивная
Бит/(Пиксели*Кадры) : 0.086
Размер потока : 3,23 Гбайт (93%)
Default : Да
Forced : Нет
Основные цвета : BT.709
Характеристики трансфера : BT.709
Коэффициенты матрицы : BT.709
DURATION : 01:56:59.940000000
NUMBER_OF_FRAMES : 350997
NUMBER_OF_BYTES : 3542138184
_STATISTICS_WRITING_APP : mkvmerge v7.0.0 ('Where We Going') 64bit built on Jun 9 2014 15:16:27
_STATISTICS_WRITING_DATE_UTC : 2014-06-21 21:17:47
_STATISTICS_TAGS : BPS DURATION NUMBER_OF_FRAMES NUMBER_OF_BYTES
Аудио
Идентификатор : 2
Формат : AC-3
Формат/Информация : Audio Coding 3
Расширение режима : CM (complete main)
Параметр Endianness формата : Big
Идентификатор кодека : A_AC3
Продолжительность : 1 ч. 56 м.
Вид битрейта : Постоянный
Битрейт : 192 Кбит/сек
Каналы : 2 канала
Расположение каналов : Front: L R
Частота : 48,0 КГц
Битовая глубина : 16 бит
Метод сжатия : С потерями
Размер потока : 161 Мбайт (5%)
Язык : Russian
Default : Да
Forced : Нет
DURATION : 01:56:59.904000000
NUMBER_OF_FRAMES : 219369
NUMBER_OF_BYTES : 168475392
_STATISTICS_WRITING_APP : mkvmerge v7.0.0 ('Where We Going') 64bit built on Jun 9 2014 15:16:27
_STATISTICS_WRITING_DATE_UTC : 2014-06-21 21:17:47
_STATISTICS_TAGS : BPS DURATION NUMBER_OF_FRAMES NUMBER_OF_BYTES
Download / Скачать

Хотите скачать бесплатно? Зарегистрируйтесь на сайте (ссылка на регистрацию). Pirat.ca - самый быстрый торрент трекер в рунете!

Как скачивать  ·   Что такое торрент  ·   Рейтинг и ограничения

Показать сообщения:    
Ответить на тему

Текущее время: Сегодня 00:18

Часовой пояс: GMT + 4



Вы не можете начинать темы
Вы не можете отвечать на сообщения
Вы не можете редактировать свои сообщения
Вы не можете удалять свои сообщения
Вы не можете голосовать в опросах
Вы не можете прикреплять файлы к сообщениям
Вы не можете скачивать файлы

▼ Вниз