ML
     
  Уважаемый Гость!
Вы можете поддержать проект и зарегистрироваться у наших партнеров - онлайн-стратегия MyLands. При регистрации в игре Вы получите код, который сможете активировать после регистрации на pirat.ca и получить 1000 дублонов.

Ваш код:
193c38d0130f05c24de871678ea3ac181461757d
 
     

Чемпионат Мира 2014 / FIFA 2014 / Нигерия – Босния и Герцеговина / Группа F. 2-й тур [22.06.2014, Спорт 1 HD, Футбол, H.264, 50fps, HDTVRip/720p]

Ответить на тему
 
Автор
Сообщение

Пост 30-Июн-2014 15:45

[Q] 

UcrusPazzo

Чемпионат Мира 2014 / FIFA 2014
Нигерия – Босния и Герцеговина / Группа F. 2-й тур
-Год выпуска: 22.06.2014
Вид спорта: Футбол
Участники: Нигерия – Босния и Герцеговина
Продолжительность: 01:47:40
Комментарий: русский (Алексей Осин)-Автор рипа / записи: Striker
-Описание:
22 июня 2014 года, воскресенье. 02:00 мск
Группа F. 2-й тур
Стадион: Арена Пантанал (Куяба, Бразилия)
Главный судья: Петер О'Лири (Гамильтон, Новая Зеландия); Ассистент: Ян-Хендрик Хинтц (Окленд, Новая Зеландия); Ассистент: Марк Рул (Новая Зеландия)-Качество видео: HDTVRip
Контейнер: MKV
Видео кодек: H.264
Аудио кодек: AC3
Видео: 3995 Кбит/сек; 1280*720 (16:9); в 50,000 кадров/сек; 0.087 Бит/(Пиксели*Кадры); AVC
Аудио: 192 Кбит/сек; 48,0 КГц; 16 бит; 2 канала; АС-3
Нигерия
Вратари

1 Винсент Эньеама (к) Лилль
16 Остин Эджиде Хапоэль (Беэр-Шева)
21 Чигози Агбим Гомбе Юнайтед
Защитники
2 Джозеф Йобо Норвич Сити
3 Эджике Узоеньи[15] Энугу Рейнджерс
5 Эфе Амброуз Селтик
6 Азубуйке Эгвуэкве Варри Вулвз
12 Кунле Одунлами Саншайн Старз
13 Джувон Ошанива Ашдод
14 Годфри Обоабона Ризеспор
22 Кеннет Омеруо Мидлсбро
Полузащитники
4 Реубен Габриель Васланд-Беверен
10 Джон Оби Микел Челси
15 Рамон Азиз Альмерия
17 Оджени Онази Лацио
20 Майкл Учебо Серкль Брюгге
Нападающие
7 Ахмед Муса ЦСКА (Москва)
8 Питер Одемвингие Сток Сити
9 Эммануэль Эменике Фенербахче
11 Виктор Мозес Ливерпуль
18 Мишель Бабатунде Волынь
19 Уче Нвофор Херенвеен
23 Шола Амеоби Ньюкасл Юнайтед
Главный тренер Стивен Кеши Нигерия-Босния и Герцеговина
Вратари

1 Асмир Бегович Сток Сити
12 Ясмин Фейзич Аален
22 Асмир Авдукич Борац
Защитники
2 Авдия Вршаевич Хайдук
3 Эрмин Бичакчич Айнтрахт (Брауншвейг)
4 Эмир Спахич (к) Байер 04
5 Сеад Колашинац Шальке 04
6 Огнен Враньеш Элязыгспор
13 Менсур Муйджа Фрайбург
15 Тони Шунич Заря
Полузащитники
7 Мухамед Бешич Ференцварош
8 Миралем Пьянич Рома
10 Звездан Мисимович Гуйчжоу Жэньхэ
14 Тино-Свен Сушич Хайдук
16 Сенад Лулич Лацио
17 Сенияд Ибричич Кайсери Эрджиесспор
18 Харис Медунянин Газиантепспор
20 Изет Хайрович Галатасарай
21 Анел Хаджич Штурм
23 Сеяд Салихович Хоффенхайм
Нападающие
9 Ведад Ибишевич Штутгарт
11 Эдин Джеко Манчестер Сити
19 Эдин Вишча Истанбул ББ
Главный тренер Сафет Сушич Босния и Герцеговина
Общее
Уникальный идентификатор : 203567188407658575677120940080698096762 (0x99259D4854389D70B20B3B5F33F1FC7A)
Формат : Matroska
Версия формата : Version 4 / Version 2
Размер файла : 3,21 Гбайт
Продолжительность : 1 ч. 47 м.
Общий поток : 4272 Кбит/сек
Дата кодирования : UTC 2014-06-22 00:20:00
Программа кодирования : mkvmerge v7.0.0 ('Where We Going') 64bit built on Jun 9 2014 15:16:27
Библиотека кодирования : libebml v1.3.0 + libmatroska v1.4.1
Видео
Идентификатор : 1
Формат : AVC
Формат/Информация : Advanced Video Codec
Профиль формата : [email protected]
Параметр CABAC формата : Да
Параметр ReFrames формата : 4 кадра
Параметр GOP формата : M=2, N=15
Идентификатор кодека : V_MPEG4/ISO/AVC
Продолжительность : 1 ч. 47 м.
Битрейт : 3995 Кбит/сек
Ширина : 1280 пикселей
Высота : 720 пикселей
Соотношение сторон : 16:9
Режим частоты кадров : Постоянный
Частота кадров : 50,000 кадров/сек
Цветовое пространство : YUV
Субдискретизация насыщенности : 4:2:0
Битовая глубина : 8 бит
Тип развёртки : Прогрессивная
Бит/(Пиксели*Кадры) : 0.087
Размер потока : 3,00 Гбайт (94%)
Default : Да
Forced : Нет
Основные цвета : BT.709
Характеристики трансфера : BT.709
Коэффициенты матрицы : BT.709
DURATION : 01:47:39.740000000
NUMBER_OF_FRAMES : 322987
NUMBER_OF_BYTES : 3291905074
_STATISTICS_WRITING_APP : mkvmerge v7.0.0 ('Where We Going') 64bit built on Jun 9 2014 15:16:27
_STATISTICS_WRITING_DATE_UTC : 2014-06-22 00:20:00
_STATISTICS_TAGS : BPS DURATION NUMBER_OF_FRAMES NUMBER_OF_BYTES
Аудио
Идентификатор : 2
Формат : AC-3
Формат/Информация : Audio Coding 3
Расширение режима : CM (complete main)
Параметр Endianness формата : Big
Идентификатор кодека : A_AC3
Продолжительность : 1 ч. 47 м.
Вид битрейта : Постоянный
Битрейт : 192 Кбит/сек
Каналы : 2 канала
Расположение каналов : Front: L R
Частота : 48,0 КГц
Битовая глубина : 16 бит
Метод сжатия : С потерями
Размер потока : 148 Мбайт (4%)
Язык : Russian
Default : Да
Forced : Нет
DURATION : 01:47:39.704000000
NUMBER_OF_FRAMES : 201864
NUMBER_OF_BYTES : 155031552
_STATISTICS_WRITING_APP : mkvmerge v7.0.0 ('Where We Going') 64bit built on Jun 9 2014 15:16:27
_STATISTICS_WRITING_DATE_UTC : 2014-06-22 00:20:00
_STATISTICS_TAGS : BPS DURATION NUMBER_OF_FRAMES NUMBER_OF_BYTES
Download / Скачать

Хотите скачать бесплатно? Зарегистрируйтесь на сайте (ссылка на регистрацию). Pirat.ca - самый быстрый торрент трекер в рунете!

Как скачивать  ·   Что такое торрент  ·   Рейтинг и ограничения

Показать сообщения:    
Ответить на тему

Текущее время: Сегодня 18:03

Часовой пояс: GMT + 4



Вы не можете начинать темы
Вы не можете отвечать на сообщения
Вы не можете редактировать свои сообщения
Вы не можете удалять свои сообщения
Вы не можете голосовать в опросах
Вы не можете прикреплять файлы к сообщениям
Вы не можете скачивать файлы

▼ Вниз