ML
     
  Уважаемый Гость!
Вы можете поддержать проект и зарегистрироваться у наших партнеров - онлайн-стратегия MyLands. При регистрации в игре Вы получите код, который сможете активировать после регистрации на pirat.ca и получить 1000 дублонов.

Ваш код:
6f9ab67d502902cc72a06c406977ddb589b7f39d
 
     

Чемпионат Мира 2014 / FIFA 2014 / Бельгия – Россия / Группа H. 2-й тур [22.06.2014, Спорт 1 HD, Футбол, H.264, 50fps, HDTVRip/720p]

Ответить на тему
 
Автор
Сообщение

Пост 30-Июн-2014 15:45

[Q] 

UcrusPazzo

Чемпионат Мира 2014 / FIFA 2014
Бельгия – Россия / Группа H. 2-й тур
-Год выпуска: 22.06.2014
Вид спорта: Футбол
Участники: Бельгия – Россия
Продолжительность: 02:10:23
Комментарий: русский (Владимир Стогниенко)-Автор рипа / записи: Striker
-Описание:
22 июня 2014 года, воскресенье. 20:00 мск
Группа H. 2-й тур
Стадион: Маракана - Марио Филью (Рио-де-Жанейро, Бразилия) Зрителей: 73819 (вместимость – 74738)
Главный судья: Феликс Брих (Мюнхен, Германия); Ассистент: Марк Борш (Мёнхенгладбах, Германия); Ассистент: Штефан Лупп (Цоссен, Германия)-Качество видео: HDTVRip
Контейнер: MKV
Видео кодек: H.264
Аудио кодек: AC3
Видео: 4001 Кбит/сек; 1280*720 (16:9); в 50,000 кадров/сек; 0.087 Бит/(Пиксели*Кадры); AVC
Аудио: 192 Кбит/сек; 48,0 КГц; 16 бит; 2 канала; АС-3
Бельгия
Вратари

1 Тибо Куртуа Атлетико Мадрид
12 Симон Миньоле Ливерпуль
13 Сэмми Боссют Зюлте-Варегем
Защитники
2 Тоби Алдервейрелд Атлетико Мадрид
3 Томас Вермален Арсенал
4 Венсан Компани (к) Манчестер Сити
5 Ян Вертонген Тоттенхэм Хотспур
15 Даниэль ван Бюйтен Бавария
18 Николас Ломбертс Зенит (Санкт-Петербург)
21 Энтони Ванден Борре Андерлехт
23 Лоран Симан Стандард
Полузащитники
6 Аксель Витсель Зенит (Санкт-Петербург)
7 Кевин де Брёйне Вольфсбург
8 Маруан Феллайни Манчестер Юнайтед
10 Эден Азар Челси
11 Кевин Миральяс Эвертон
16 Стивен Дефур Порту
19 Мусса Дембеле Тоттенхэм Хотспур
20 Аднан Янузай Манчестер Юнайтед
22 Насер Шадли Тоттенхэм Хотспур
Нападающие
9 Ромелу Лукаку Эвертон
14 Дрис Мертенс Наполи
17 Дивок Ориджи Лилль
Главный тренер Марк Вильмотс Бельгия-Россия
Вратари

1 Игорь Акинфеев ЦСКА (Москва)
12 Юрий Лодыгин Зенит (Санкт-Петербург)
16 Сергей Рыжиков Рубин
Защитники
2 Алексей Козлов Динамо (Москва)
3 Георгий Щенников ЦСКА (Москва)
4 Сергей Игнашевич ЦСКА (Москва)
5 Андрей Семёнов Терек
13 Владимир Гранат Динамо (Москва)
14 Василий Березуцкий (к) ЦСКА (Москва)
22 Андрей Ещенко Анжи
23 Дмитрий Комбаров Спартак (Москва)
Полузащитники
7 Игорь Денисов Динамо (Москва)
8 Денис Глушаков Спартак (Москва)
10 Алан Дзагоев ЦСКА (Москва)
15 Павел Могилевец[18] Рубин
17 Олег Шатов Зенит (Санкт-Петербург)
18 Юрий Жирков Динамо (Москва)
19 Александр Самедов Локомотив (Москва)
20 Виктор Файзулин Зенит (Санкт-Петербург)
21 Алексей Ионов Динамо (Москва)
Нападающие
6 Максим Канунников Амкар[19]
9 Александр Кокорин Динамо (Москва)
11 Александр Кержаков Зенит (Санкт-Петербург)
Главный тренер Фабио Капелло Италия
Общее
Уникальный идентификатор : 182221393656921839555160067301957885789 (0x89169058D036FFB991D50FEE6E86DF5D)
Формат : Matroska
Версия формата : Version 4 / Version 2
Размер файла : 3,90 Гбайт
Продолжительность : 2 ч. 10 м.
Общий поток : 4278 Кбит/сек
Дата кодирования : UTC 2014-06-22 18:38:19
Программа кодирования : mkvmerge v7.0.0 ('Where We Going') 64bit built on Jun 9 2014 15:16:27
Библиотека кодирования : libebml v1.3.0 + libmatroska v1.4.1
Видео
Идентификатор : 1
Формат : AVC
Формат/Информация : Advanced Video Codec
Профиль формата : [email protected]
Параметр CABAC формата : Да
Параметр ReFrames формата : 4 кадра
Параметр GOP формата : M=2, N=15
Идентификатор кодека : V_MPEG4/ISO/AVC
Продолжительность : 2 ч. 10 м.
Битрейт : 4001 Кбит/сек
Ширина : 1280 пикселей
Высота : 720 пикселей
Соотношение сторон : 16:9
Режим частоты кадров : Постоянный
Частота кадров : 50,000 кадров/сек
Цветовое пространство : YUV
Субдискретизация насыщенности : 4:2:0
Битовая глубина : 8 бит
Тип развёртки : Прогрессивная
Бит/(Пиксели*Кадры) : 0.087
Размер потока : 3,64 Гбайт (94%)
Default : Да
Forced : Нет
Основные цвета : BT.709
Характеристики трансфера : BT.709
Коэффициенты матрицы : BT.709
DURATION : 02:10:23.280000000
NUMBER_OF_FRAMES : 391164
NUMBER_OF_BYTES : 3992487489
_STATISTICS_WRITING_APP : mkvmerge v7.0.0 ('Where We Going') 64bit built on Jun 9 2014 15:16:27
_STATISTICS_WRITING_DATE_UTC : 2014-06-22 18:38:19
_STATISTICS_TAGS : BPS DURATION NUMBER_OF_FRAMES NUMBER_OF_BYTES
Аудио
Идентификатор : 2
Формат : AC-3
Формат/Информация : Audio Coding 3
Расширение режима : CM (complete main)
Параметр Endianness формата : Big
Идентификатор кодека : A_AC3
Продолжительность : 2 ч. 10 м.
Вид битрейта : Постоянный
Битрейт : 192 Кбит/сек
Каналы : 2 канала
Расположение каналов : Front: L R
Частота : 48,0 КГц
Битовая глубина : 16 бит
Метод сжатия : С потерями
Размер потока : 179 Мбайт (4%)
Язык : Russian
Default : Да
Forced : Нет
DURATION : 02:10:23.244000000
NUMBER_OF_FRAMES : 244474
NUMBER_OF_BYTES : 187756032
_STATISTICS_WRITING_APP : mkvmerge v7.0.0 ('Where We Going') 64bit built on Jun 9 2014 15:16:27
_STATISTICS_WRITING_DATE_UTC : 2014-06-22 18:38:19
_STATISTICS_TAGS : BPS DURATION NUMBER_OF_FRAMES NUMBER_OF_BYTES
Download / Скачать

Хотите скачать бесплатно? Зарегистрируйтесь на сайте (ссылка на регистрацию). Pirat.ca - самый быстрый торрент трекер в рунете!

Как скачивать  ·   Что такое торрент  ·   Рейтинг и ограничения

KoNiaL_KCC

Гроза морей

Пост 09-Июл-2014 23:02 (спустя 9 дней)

[Q] 

Трафик потрачен зря! какая боль аргентина - ямайка .....
[Профиль]  [ЛС] 

Reno-19

420

Пост 10-Окт-2014 07:20 (спустя 3 месяца)

[Q] 

Качаем..... качаем... спорт.... Всем качать!!!
[Профиль]  [ЛС] 

Reno-19

420

Пост 25-Окт-2014 17:00 (спустя 15 дней)

[Q] 

А спорт у нас не любят.... Качают ВСЕ!!!
[Профиль]  [ЛС] 
Показать сообщения:    
Ответить на тему

Текущее время: Сегодня 16:27

Часовой пояс: GMT + 4



Вы не можете начинать темы
Вы не можете отвечать на сообщения
Вы не можете редактировать свои сообщения
Вы не можете удалять свои сообщения
Вы не можете голосовать в опросах
Вы не можете прикреплять файлы к сообщениям
Вы не можете скачивать файлы

▼ Вниз