ML
     
  Уважаемый Гость!
Вы можете поддержать проект и зарегистрироваться у наших партнеров - онлайн-стратегия MyLands. При регистрации в игре Вы получите код, который сможете активировать после регистрации на pirat.ca и получить 1000 дублонов.

Ваш код:
ee1288b6f7c09d9d2cb2a0f972aba30460ce9333
 
     

Чемпионат Мира 2014 / FIFA 2014 / Южная Корея (Республика Корея) – Алжир / Группа H. 2-й тур [22.06.2014, Спорт 1 HD, Футбол, H.264, 50fps, HDTVRip/720p]

Ответить на тему
 
Автор
Сообщение

Пост 30-Июн-2014 15:46

[Q] 

UcrusPazzo

Чемпионат Мира 2014 / FIFA 2014
Южная Корея (Республика Корея) – Алжир / Группа H. 2-й тур
-Год выпуска: 22.06.2014
Вид спорта: Футбол
Участники: Южная Корея (Республика Корея) – Алжир
Продолжительность: 01:47:28
Комментарий: русский (Юрий Розанов)-Автор рипа / записи: Striker
-Описание:
22 июня 2014 года, воскресенье. 23:00 мск
Группа H. 2-й тур
Стадион: Бейра-Рио - Жозе Пинейро Борда (Порту-Алегри, Бразилия)
Главный судья: Уилмар Ролдан Перес (Медельин, Колумбия); Ассистент: Эдуардо Диас (Колумбия); Ассистент: Кристиан Лескано (Гуаякиль, Эквадор)-Качество видео: HDTVRip
Контейнер: MKV
Видео кодек: H.264
Аудио кодек: AC3
Видео: 3974 Кбит/сек; 1280*720 (16:9); в 50,000 кадров/сек; 0.086 Бит/(Пиксели*Кадры); AVC
Аудио: 192 Кбит/сек; 48,0 КГц; 16 бит; 2 канала; АС-3
Республика Корея
Вратари

1 Чон Сон Рён Сувон Блюуингз
21 Ким Сын Гю Ульсан Хёндэ
23 Ли Бом Ён Пусан Ай Парк
Защитники
2 Ким Чхан Су Касива Рейсол
3 Юн Сок Ён Куинз Парк Рейнджерс
4 Квак Тхэ Хви Аль-Хиляль (Эр-Рияд)
5 Ким Ён Гвон Гуанчжоу Эвергранд
6 Хван Сок Хо Санфречче Хиросима
12 Ли Ён Ульсан Хёндэ
20 Хон Ён Хо Аугсбург
22 Пак Чу Хо[20] Майнц 05
Полузащитники
7 Ким Бо Гён Кардифф Сити
8 Ха Дэ Сон Бэйцзин Гоань
13 Ку Джа Чхоль (к) Майнц 05
14 Хан Гук Ён Касива Рейсол
15 Пак Чон У Гуанчжоу Фули
16 Ки Сон Ён Сандерленд
17 Ли Чхон Ён Болтон Уондерерс
Нападающие
9 Сон Хын Мин Байер 04
10 Пак Чу Ён Уотфорд
11 Ли Гын Хо Санджу Санму
18 Ким Син Ук Ульсан Хёндэ
19 Чи Дон Вон Аугсбург
Главный тренер Хон Мён Бо Республика Корея-Алжир
Вратари

1 Седрик Си Мохамед КС Константина
16 Мохамед Земмамуш УСМ Алжир
23 Раис М’Боли ЦСКА (София)
Защитники
2 Маджид Бугерра (к) Лехвия
3 Фаузи Гулам Наполи
4 Эссаид Белькалем Уотфорд
5 Рафик Халиш Академика
6 Джамель Месбах Ливорно
12 Карл Меджани Валансьен
17 Лиассин Кадамуро-Бентаиба Мальорка
20 Аисса Манди Реймс
Полузащитники
7 Хассан Йебда Удинезе
8 Мехди Ласен Хетафе
10 Софиан Фегули Валенсия
11 Ясин Брахими Гранада
14 Набиль Бенталеб Тоттенхэм Хотспур
18 Абдельмумен Джабу Клуб Африкэн
19 Сафир Тайдер Интернационале
21 Рияд Махрез Лестер Сити
22 Мехди Мостефа Аяччо
Нападающие
9 Набиль Гиля Порту
13 Ислам Слимани Спортинг (Лиссабон)
15 Эль-Арби Хиллел Судани Динамо (Загреб)
Главный тренер Вахид Халилходжич Босния и Герцеговина
Общее
Уникальный идентификатор : 171556099724159812509053158898255907521 (0x811080C1FE4ED0DABA043D645385CAC1)
Формат : Matroska
Версия формата : Version 4 / Version 2
Размер файла : 3,19 Гбайт
Продолжительность : 1 ч. 47 м.
Общий поток : 4250 Кбит/сек
Дата кодирования : UTC 2014-06-22 21:16:02
Программа кодирования : mkvmerge v7.0.0 ('Where We Going') 64bit built on Jun 9 2014 15:16:27
Библиотека кодирования : libebml v1.3.0 + libmatroska v1.4.1
Видео
Идентификатор : 1
Формат : AVC
Формат/Информация : Advanced Video Codec
Профиль формата : [email protected]
Параметр CABAC формата : Да
Параметр ReFrames формата : 4 кадра
Параметр GOP формата : M=2, N=15
Идентификатор кодека : V_MPEG4/ISO/AVC
Продолжительность : 1 ч. 47 м.
Битрейт : 3974 Кбит/сек
Ширина : 1280 пикселей
Высота : 720 пикселей
Соотношение сторон : 16:9
Режим частоты кадров : Постоянный
Частота кадров : 50,000 кадров/сек
Цветовое пространство : YUV
Субдискретизация насыщенности : 4:2:0
Битовая глубина : 8 бит
Тип развёртки : Прогрессивная
Бит/(Пиксели*Кадры) : 0.086
Размер потока : 2,98 Гбайт (93%)
Default : Да
Forced : Нет
Основные цвета : BT.709
Характеристики трансфера : BT.709
Коэффициенты матрицы : BT.709
DURATION : 01:47:27.560000000
NUMBER_OF_FRAMES : 322378
NUMBER_OF_BYTES : 3268200176
_STATISTICS_WRITING_APP : mkvmerge v7.0.0 ('Where We Going') 64bit built on Jun 9 2014 15:16:27
_STATISTICS_WRITING_DATE_UTC : 2014-06-22 21:16:02
_STATISTICS_TAGS : BPS DURATION NUMBER_OF_FRAMES NUMBER_OF_BYTES
Аудио
Идентификатор : 2
Формат : AC-3
Формат/Информация : Audio Coding 3
Расширение режима : CM (complete main)
Параметр Endianness формата : Big
Идентификатор кодека : A_AC3
Продолжительность : 1 ч. 47 м.
Вид битрейта : Постоянный
Битрейт : 192 Кбит/сек
Каналы : 2 канала
Расположение каналов : Front: L R
Частота : 48,0 КГц
Битовая глубина : 16 бит
Метод сжатия : С потерями
Размер потока : 148 Мбайт (5%)
Язык : Russian
Default : Да
Forced : Нет
DURATION : 01:47:27.524000000
NUMBER_OF_FRAMES : 201482
NUMBER_OF_BYTES : 154738176
_STATISTICS_WRITING_APP : mkvmerge v7.0.0 ('Where We Going') 64bit built on Jun 9 2014 15:16:27
_STATISTICS_WRITING_DATE_UTC : 2014-06-22 21:16:02
_STATISTICS_TAGS : BPS DURATION NUMBER_OF_FRAMES NUMBER_OF_BYTES
Download / Скачать

Хотите скачать бесплатно? Зарегистрируйтесь на сайте (ссылка на регистрацию). Pirat.ca - самый быстрый торрент трекер в рунете!

Как скачивать  ·   Что такое торрент  ·   Рейтинг и ограничения

Показать сообщения:    
Ответить на тему

Текущее время: Сегодня 18:19

Часовой пояс: GMT + 4



Вы не можете начинать темы
Вы не можете отвечать на сообщения
Вы не можете редактировать свои сообщения
Вы не можете удалять свои сообщения
Вы не можете голосовать в опросах
Вы не можете прикреплять файлы к сообщениям
Вы не можете скачивать файлы

▼ Вниз