ML
     
  Уважаемый Гость!
Вы можете поддержать проект и зарегистрироваться у наших партнеров - онлайн-стратегия MyLands. При регистрации в игре Вы получите код, который сможете активировать после регистрации на pirat.ca и получить 1000 дублонов.

Ваш код:
0af2e2107bc9b5dd5ac2c09f9fc25e1a77c43887
 
     

Чемпионат Мира 2014 / FIFA 2014 / США – Португалия / Группа G. 2-й тур [23.06.2014, Спорт 1 HD, Футбол, H.264, 50fps, HDTVRip/720p]

Ответить на тему
 
Автор
Сообщение

Пост 30-Июн-2014 15:47

[Q] 

UcrusPazzo

Чемпионат Мира 2014 / FIFA 2014
США – Португалия / Группа G. 2-й тур
-Год выпуска: 23.06.2014
Вид спорта: Футбол
Участники: США – Португалия
Продолжительность: 02:01:57
Комментарий: русский (Сергей Кривохарченко)-Автор рипа / записи: Striker
-Описание:
23 июня 2014 года, понедельник. 02:00 мск
Группа G. 2-й тур
Стадион: Арена Амазония (Манаус, Бразилия)
Главный судья: Нестор Питана (Корпус, Мисьонес, Аргентина); Ассистент: Эрнан Майдана (Буэнос-Айрес, Аргентина); Ассистент: Хуан Пабло Белатти (Аргентина)-Качество видео: HDTVRip
Контейнер: MKV
Видео кодек: H.264
Аудио кодек: AC3
Видео: 3979 Кбит/сек; 1280*720 (16:9); в 50,000 кадров/сек; 0.086 Бит/(Пиксели*Кадры); AVC
Аудио: 192 Кбит/сек; 48,0 КГц; 16 бит; 2 канала; АС-3
США
Вратари

1 Тим Ховард Эвертон
12 Брэд Гузан Астон Вилла
22 Ник Римандо Реал Солт-Лейк
Защитники
2 Деандре Йедлин Сиэтл Саундерс
3 Омар Гонсалес Лос-Анджелес Гэлакси
5 Мэтт Беслер Спортинг Канзас-Сити
6 Джон Брукс Герта (Берлин)
7 Дамаркус Бизли Пуэбла
20 Джефф Кэмерон Сток Сити
21 Тимоти Чендлер Нюрнберг
23 Фабиан Джонсон Хоффенхайм
Полузащитники
4 Майкл Брэдли Торонто
10 Миккел Дискеруд Русенборг
11 Алехандро Бедойя Нант
13 Джермейн Джонс Бешикташ
14 Брэд Дэвис Хьюстон Динамо
15 Кайл Бекерман Реал Солт-Лейк
16 Джулиан Грин Бавария
19 Грэм Зуси Спортинг Канзас-Сити
Нападающие
8 Клинт Демпси (к) Сиэтл Саундерс
9 Арон Юханнссон АЗ
17 Джози Алтидор Сандерленд
18 Крис Вондоловски Сан-Хосе Эртквейкс
Главный тренер Юрген Клинсман Германия-Португалия
Вратари

1 Эдуарду Брага
12 Руй Патрисиу Спортинг
22 Бету Севилья
Защитники
2 Бруну Алвеш Фенербахче
3 Пепе Реал Мадрид
5 Фабиу Коэнтрау Реал Мадрид
13 Рикарду Кошта Валенсия
14 Нету Зенит (Санкт-Петербург)
19 Андре Алмейда Бенфика
21 Жуан Перейра Валенсия
Полузащитники
4 Мигел Велозу Динамо (Киев)
6 Вильям Карвалью Спортинг
8 Жоау Моутинью Монако
10 Виейринья Вольфсбург
15 Рафа Силва Брага
16 Раул Мейрелиш Фенербахче
17 Нани Манчестер Юнайтед
18 Силвестре Варела Порту
20 Рубен Аморим Бенфика
Нападающие
7 Криштиану Роналду (к) Реал Мадрид
9 Угу Алмейда Бешикташ
11 Эдер Брага
23 Элдер Поштига Лацио
Главный тренер Паулу Бенту Португалия
Общее
Уникальный идентификатор : 204266065709927854923009600657999655331 (0x99AC369807A71FF88345825757F9F1A3)
Формат : Matroska
Версия формата : Version 4 / Version 2
Размер файла : 3,62 Гбайт
Продолжительность : 2 ч. 1 м.
Общий поток : 4255 Кбит/сек
Дата кодирования : UTC 2014-06-23 00:23:25
Программа кодирования : mkvmerge v7.0.0 ('Where We Going') 64bit built on Jun 9 2014 15:16:27
Библиотека кодирования : libebml v1.3.0 + libmatroska v1.4.1
Видео
Идентификатор : 1
Формат : AVC
Формат/Информация : Advanced Video Codec
Профиль формата : [email protected]
Параметр CABAC формата : Да
Параметр ReFrames формата : 4 кадра
Параметр GOP формата : M=2, N=15
Идентификатор кодека : V_MPEG4/ISO/AVC
Продолжительность : 2 ч. 1 м.
Битрейт : 3979 Кбит/сек
Ширина : 1280 пикселей
Высота : 720 пикселей
Соотношение сторон : 16:9
Режим частоты кадров : Постоянный
Частота кадров : 50,000 кадров/сек
Цветовое пространство : YUV
Субдискретизация насыщенности : 4:2:0
Битовая глубина : 8 бит
Тип развёртки : Прогрессивная
Бит/(Пиксели*Кадры) : 0.086
Размер потока : 3,39 Гбайт (93%)
Default : Да
Forced : Нет
Основные цвета : BT.709
Характеристики трансфера : BT.709
Коэффициенты матрицы : BT.709
DURATION : 02:01:56.520000000
NUMBER_OF_FRAMES : 365826
NUMBER_OF_BYTES : 3713324837
_STATISTICS_WRITING_APP : mkvmerge v7.0.0 ('Where We Going') 64bit built on Jun 9 2014 15:16:27
_STATISTICS_WRITING_DATE_UTC : 2014-06-23 00:23:25
_STATISTICS_TAGS : BPS DURATION NUMBER_OF_FRAMES NUMBER_OF_BYTES
Аудио
Идентификатор : 2
Формат : AC-3
Формат/Информация : Audio Coding 3
Расширение режима : CM (complete main)
Параметр Endianness формата : Big
Идентификатор кодека : A_AC3
Продолжительность : 2 ч. 1 м.
Вид битрейта : Постоянный
Битрейт : 192 Кбит/сек
Каналы : 2 канала
Расположение каналов : Front: L R
Частота : 48,0 КГц
Битовая глубина : 16 бит
Метод сжатия : С потерями
Размер потока : 167 Мбайт (5%)
Язык : Russian
Default : Да
Forced : Нет
DURATION : 02:01:56.484000000
NUMBER_OF_FRAMES : 228638
NUMBER_OF_BYTES : 175593984
_STATISTICS_WRITING_APP : mkvmerge v7.0.0 ('Where We Going') 64bit built on Jun 9 2014 15:16:27
_STATISTICS_WRITING_DATE_UTC : 2014-06-23 00:23:25
_STATISTICS_TAGS : BPS DURATION NUMBER_OF_FRAMES NUMBER_OF_BYTES
Download / Скачать

Хотите скачать бесплатно? Зарегистрируйтесь на сайте (ссылка на регистрацию). Pirat.ca - самый быстрый торрент трекер в рунете!

Как скачивать  ·   Что такое торрент  ·   Рейтинг и ограничения

Показать сообщения:    
Ответить на тему

Текущее время: Сегодня 00:04

Часовой пояс: GMT + 4



Вы не можете начинать темы
Вы не можете отвечать на сообщения
Вы не можете редактировать свои сообщения
Вы не можете удалять свои сообщения
Вы не можете голосовать в опросах
Вы не можете прикреплять файлы к сообщениям
Вы не можете скачивать файлы

▼ Вниз