ML
     
  Уважаемый Гость!
Вы можете поддержать проект и зарегистрироваться у наших партнеров - онлайн-стратегия MyLands. При регистрации в игре Вы получите код, который сможете активировать после регистрации на pirat.ca и получить 1000 дублонов.

Ваш код:
822959f93c00d34653763d5bbf9ee9a7134af98a
 
     

Чемпионат Мира 2014 / FIFA 2014 / Австралия – Испания / Группа В. 3-й тур [23.06.2014, Спорт 1 HD, Футбол, H.264, 50fps, HDTVRip/720p]

Ответить на тему
 
Автор
Сообщение

Пост 30-Июн-2014 15:48

[Q] 

UcrusPazzo

Чемпионат Мира 2014 / FIFA 2014
Австралия – Испания / Группа В. 3-й тур
-Год выпуска: 23.06.2014
Вид спорта: Футбол
Участники: Австралия – Испания
Продолжительность: 01:35:35
Комментарий: русский (Владимир Стогниенко)-Автор рипа / записи: Striker
-Описание:
23 июня 2014 года, понедельник. 20:00 мск
Группа B. 3-й тур
Стадион: Арена Байшада (Куритиба, Бразилия) Зрителей: 39375 (вместимость – 41456)
Главный судья: Наваф Шукралла (Манама, Бахрейн); Ассистент: Ясер Тулефат (Бахрейн); Ассистент: Эбрахим Салех (Бахрейн)-Качество видео: HDTVRip
Контейнер: MKV
Видео кодек: H.264
Аудио кодек: AC3
Видео: 3998 Кбит/сек; 1280*720 (16:9); в 50,000 кадров/сек; 0.087 Бит/(Пиксели*Кадры); AVC
Аудио: 192 Кбит/сек; 48,0 КГц; 16 бит; 2 канала; АС-3
Австралия
Вратари
1 Мэтью Райан Брюгге
12 Митчелл Лангерак Боруссия (Дортмунд)
18 Юджин Галекович Аделаида Юнайтед
Защитники
2 Иван Франжич Брисбен Роар
3 Джейсон Дэвидсон Хераклес
6 Мэттью Шпиранович Вестерн Сидней Уондерерс
8 Бейли Райт Престон Норт Энд
19 Райан Макгован Шаньдун Лунэн
22 Алекс Уилкинсон Чонбук Хёндэ Моторс
Полузащитники
5 Марк Миллиган Мельбурн Виктори
10 Бен Халлоран Фортуна (Дюссельдорф)
11 Томми Оур Утрехт
13 Оливер Бозанич Люцерн
14 Джеймс Троизи Мельбурн Виктори
15 Миле Единак (к) Кристал Пэлас
16 Джеймс Холланд Аустрия (Вена)
17 Мэтт Маккей Брисбен Роар
20 Дарио Видошич Сьон
21 Массимо Луонго Суиндон Таун
23 Марк Брешиано Аль-Гарафа
Нападающие
4 Тим Кэхилл Нью-Йорк Ред Буллз
7 Мэттью Леки Ингольштадт 04
9 Адам Таггарт Ньюкасл Джетс
Главный тренер Анге Постекоглу Греция-Испания
Вратари
1 Икер Касильяс (к) Реал Мадрид
12 Давид Де Хеа Манчестер Юнайтед
23 Пепе Рейна Наполи
Защитники
2 Рауль Альбиоль Наполи
3 Жерар Пике Барселона
5 Хуанфран Атлетико Мадрид
15 Серхио Рамос Реал Мадрид
18 Жорди Альба Барселона
22 Сесар Аспиликуэта Челси
Полузащитники
4 Хави Мартинес Бавария
6 Андрес Иньеста Барселона
8 Хави Барселона
10 Сеск Фабрегас Барселона[5]
13 Хуан Мата Манчестер Юнайтед
14 Хаби Алонсо Реал Мадрид
16 Серхио Бускетс Барселона
17 Коке Атлетико Мадрид
20 Санти Касорла Арсенал
21 Давид Сильва Манчестер Сити
Нападающие
7 Давид Вилья Атлетико Мадрид[6]
9 Фернандо Торрес Челси
11 Педро Родригес Барселона
19 Диего Коста Атлетико Мадрид
Главный тренер Висенте Дель Боске Испания
Общее
Уникальный идентификатор : 252127817424111811035278090080638898541 (0xBDAE0D248DA6BB679105BC11EE96916D)
Формат : Matroska
Версия формата : Version 4 / Version 2
Размер файла : 2,85 Гбайт
Продолжительность : 1 ч. 35 м.
Общий поток : 4275 Кбит/сек
Дата кодирования : UTC 2014-06-23 20:05:19
Программа кодирования : mkvmerge v7.0.0 ('Where We Going') 64bit built on Jun 9 2014 15:16:27
Библиотека кодирования : libebml v1.3.0 + libmatroska v1.4.1
Видео
Идентификатор : 1
Формат : AVC
Формат/Информация : Advanced Video Codec
Профиль формата : [email protected]
Параметр CABAC формата : Да
Параметр ReFrames формата : 4 кадра
Параметр GOP формата : M=2, N=15
Идентификатор кодека : V_MPEG4/ISO/AVC
Продолжительность : 1 ч. 35 м.
Битрейт : 3998 Кбит/сек
Ширина : 1280 пикселей
Высота : 720 пикселей
Соотношение сторон : 16:9
Режим частоты кадров : Постоянный
Частота кадров : 50,000 кадров/сек
Цветовое пространство : YUV
Субдискретизация насыщенности : 4:2:0
Битовая глубина : 8 бит
Тип развёртки : Прогрессивная
Бит/(Пиксели*Кадры) : 0.087
Размер потока : 2,67 Гбайт (94%)
Default : Да
Forced : Нет
Основные цвета : BT.709
Характеристики трансфера : BT.709
Коэффициенты матрицы : BT.709
DURATION : 01:35:35.420000000
NUMBER_OF_FRAMES : 286771
NUMBER_OF_BYTES : 2924956016
_STATISTICS_WRITING_APP : mkvmerge v7.0.0 ('Where We Going') 64bit built on Jun 9 2014 15:16:27
_STATISTICS_WRITING_DATE_UTC : 2014-06-23 20:05:19
_STATISTICS_TAGS : BPS DURATION NUMBER_OF_FRAMES NUMBER_OF_BYTES
Аудио
Идентификатор : 2
Формат : AC-3
Формат/Информация : Audio Coding 3
Расширение режима : CM (complete main)
Параметр Endianness формата : Big
Идентификатор кодека : A_AC3
Продолжительность : 1 ч. 35 м.
Вид битрейта : Постоянный
Битрейт : 192 Кбит/сек
Каналы : 2 канала
Расположение каналов : Front: L R
Частота : 48,0 КГц
Битовая глубина : 16 бит
Метод сжатия : С потерями
Размер потока : 131 Мбайт (4%)
Язык : Russian
Default : Да
Forced : Нет
DURATION : 01:35:35.408000000
NUMBER_OF_FRAMES : 179230
NUMBER_OF_BYTES : 137648640
_STATISTICS_WRITING_APP : mkvmerge v7.0.0 ('Where We Going') 64bit built on Jun 9 2014 15:16:27
_STATISTICS_WRITING_DATE_UTC : 2014-06-23 20:05:19
_STATISTICS_TAGS : BPS DURATION NUMBER_OF_FRAMES NUMBER_OF_BYTES
Download / Скачать

Хотите скачать бесплатно? Зарегистрируйтесь на сайте (ссылка на регистрацию). Pirat.ca - самый быстрый торрент трекер в рунете!

Как скачивать  ·   Что такое торрент  ·   Рейтинг и ограничения

Reno-19

420

Пост 10-Окт-2014 07:30 (спустя 3 месяца 9 дней)

[Q] 

Всем качать!!! Качаем.....
Добавлено спустя 38 секунд:
спорт... для всех.... Всем качать!!!
[Профиль]  [ЛС] 

Reno-19

420

Пост 25-Окт-2014 16:46 (спустя 15 дней)

[Q] 

У нас что-то не очень спорт любят... Всем качать!!!
[Профиль]  [ЛС] 
Показать сообщения:    
Ответить на тему

Текущее время: Сегодня 05:56

Часовой пояс: GMT + 4



Вы не можете начинать темы
Вы не можете отвечать на сообщения
Вы не можете редактировать свои сообщения
Вы не можете удалять свои сообщения
Вы не можете голосовать в опросах
Вы не можете прикреплять файлы к сообщениям
Вы не можете скачивать файлы

▼ Вниз