ML
     
  Уважаемый Гость!
Вы можете поддержать проект и зарегистрироваться у наших партнеров - онлайн-стратегия MyLands. При регистрации в игре Вы получите код, который сможете активировать после регистрации на pirat.ca и получить 1000 дублонов.

Ваш код:
a978488e62322cd72e113ab723b8a7fdc10eb9b9
 
     

Чемпионат Мира 2014 / FIFA 2014 / Голландия (Нидерланды) – Чили / Группа В. 3-й тур [23.06.2014, Спорт 1 HD, Футбол, H.264, 50fps, HDTVRip/720p]

Ответить на тему
 
Автор
Сообщение

Пост 30-Июн-2014 15:49

[Q] 

UcrusPazzo

Чемпионат Мира 2014 / FIFA 2014
Голландия (Нидерланды) – Чили / Группа В. 3-й тур
-Год выпуска: 23.06.2014
Вид спорта: Футбол
Участники: Голландия (Нидерланды) – Чили
Продолжительность: 01:50:26
Комментарий: русский (Юрий Розанов)-Автор рипа / записи: Striker
-Описание:
23 июня 2014 года, понедельник. 20:00 мск
Группа B. 3-й тур
Стадион: Арена Сан-Паулу - Коринтианс (Сан-Паулу, Бразилия)
Главный судья: Бакари Папа Гассама (Банжул, Гамбия); Ассистент: Эварист Менкуанде (Яунде, Камерун); Ассистент: Фелисьен Кабанда (Руанда)-Качество видео: HDTVRip
Контейнер: MKV
Видео кодек: H.264
Аудио кодек: AC3
Видео: 4026 Кбит/сек; 1280*720 (16:9); в 50,000 кадров/сек; 0.087 Бит/(Пиксели*Кадры); AVC
Аудио: 192 Кбит/сек; 48,0 КГц; 16 бит; 2 канала; АС-3
Нидерланды
Вратари
1 Яспер Силлессен Аякс
22 Мишел Ворм Суонси Сити
23 Тим Крул Ньюкасл Юнайтед
Защитники
2 Рон Влар Астон Вилла
3 Стефан де Врей Фейеноорд
4 Бруну Мартинс Инди Фейеноорд
5 Дейли Блинд Аякс
7 Дэрил Янмат Фейеноорд
12 Паул Верхаг Аугсбург
13 Джоэл Велтман Аякс
14 Теренс Конголо Фейеноорд
Полузащитники
6 Найджел де Йонг Милан
8 Джонатан де Гузман Суонси Сити
10 Уэсли Снейдер Галатасарай
11 Арьен Роббен Бавария
16 Йорди Класи Фейеноорд
18 Лерой Фер Норвич Сити
20 Джорджиньо Вейналдум ПСВ
21 Мемфис Депай ПСВ
Нападающие
9 Робин ван Перси (к) Манчестер Юнайтед
15 Дирк Кёйт Фенербахче
17 Джермейн Ленс Динамо (Киев)
19 Клас-Ян Хюнтелар Шальке 04
Главный тренер Луи ван Гал Нидерланды-Чили
Вратари
1 Клаудио Браво (к) Реал Сосьедад
12 Кристофер Тоселли Универсидад Католика
23 Джонни Эррера Универсидад де Чили
Защитники
2 Эухенио Мена Сантос
3 Миико Альборнос Мальмё
4 Маурисио Исла Ювентус
13 Хосе Рохас Универсидад де Чили
17 Гари Медель Кардифф Сити
18 Гонсало Хара Ноттингем Форест
Полузащитники
5 Франсиско Сильва Осасуна
6 Карлос Кармона Аталанта
8 Артуро Видаль Ювентус
10 Хорхе Вальдивия Палмейрас
15 Жан Босежур Уиган Атлетик
16 Фелипе Гутьеррес Твенте
19 Хосе Педро Фуэнсалида Коло-Коло
20 Чарлес Арангис Интернасьонал
21 Марсело Диас Рохас Базель
Нападающие
7 Алексис Санчес Барселона
9 Маурисио Пинилья Кальяри
11 Эдуардо Варгас Валенсия
14 Фабиан Орельяна Сельта
22 Эстебан Паредес Коло-Коло
Главный тренер Хорхе Сампаоли Аргентина
Общее
Уникальный идентификатор : 254597021863358665058576700330900114647 (0xBF899A5223A59997906A2BA2F56ECCD7)
Формат : Matroska
Версия формата : Version 4 / Version 2
Размер файла : 3,32 Гбайт
Продолжительность : 1 ч. 50 м.
Общий поток : 4304 Кбит/сек
Дата кодирования : UTC 2014-06-23 18:12:02
Программа кодирования : mkvmerge v7.0.0 ('Where We Going') 64bit built on Jun 9 2014 15:16:27
Библиотека кодирования : libebml v1.3.0 + libmatroska v1.4.1
Видео
Идентификатор : 1
Формат : AVC
Формат/Информация : Advanced Video Codec
Профиль формата : [email protected]
Параметр CABAC формата : Да
Параметр ReFrames формата : 4 кадра
Параметр GOP формата : M=2, N=15
Идентификатор кодека : V_MPEG4/ISO/AVC
Продолжительность : 1 ч. 50 м.
Битрейт : 4026 Кбит/сек
Ширина : 1280 пикселей
Высота : 720 пикселей
Соотношение сторон : 16:9
Режим частоты кадров : Постоянный
Частота кадров : 50,000 кадров/сек
Цветовое пространство : YUV
Субдискретизация насыщенности : 4:2:0
Битовая глубина : 8 бит
Тип развёртки : Прогрессивная
Бит/(Пиксели*Кадры) : 0.087
Размер потока : 3,11 Гбайт (94%)
Default : Да
Forced : Нет
Основные цвета : BT.709
Характеристики трансфера : BT.709
Коэффициенты матрицы : BT.709
DURATION : 01:50:26.040000000
NUMBER_OF_FRAMES : 331302
NUMBER_OF_BYTES : 3403070516
_STATISTICS_WRITING_APP : mkvmerge v7.0.0 ('Where We Going') 64bit built on Jun 9 2014 15:16:27
_STATISTICS_WRITING_DATE_UTC : 2014-06-23 18:12:02
_STATISTICS_TAGS : BPS DURATION NUMBER_OF_FRAMES NUMBER_OF_BYTES
Аудио
Идентификатор : 2
Формат : AC-3
Формат/Информация : Audio Coding 3
Расширение режима : CM (complete main)
Параметр Endianness формата : Big
Идентификатор кодека : A_AC3
Продолжительность : 1 ч. 50 м.
Вид битрейта : Постоянный
Битрейт : 192 Кбит/сек
Каналы : 2 канала
Расположение каналов : Front: L R
Частота : 48,0 КГц
Битовая глубина : 16 бит
Метод сжатия : С потерями
Размер потока : 152 Мбайт (4%)
Язык : Russian
Default : Да
Forced : Нет
DURATION : 01:50:26.004000000
NUMBER_OF_FRAMES : 207058
NUMBER_OF_BYTES : 159020544
_STATISTICS_WRITING_APP : mkvmerge v7.0.0 ('Where We Going') 64bit built on Jun 9 2014 15:16:27
_STATISTICS_WRITING_DATE_UTC : 2014-06-23 18:12:02
_STATISTICS_TAGS : BPS DURATION NUMBER_OF_FRAMES NUMBER_OF_BYTES
Download / Скачать

Хотите скачать бесплатно? Зарегистрируйтесь на сайте (ссылка на регистрацию). Pirat.ca - самый быстрый торрент трекер в рунете!

Как скачивать  ·   Что такое торрент  ·   Рейтинг и ограничения

Reno-19

420

Пост 25-Окт-2014 17:21 (спустя 3 месяца 25 дней)

[Q] 

Все спят.... SOS!!!
[Профиль]  [ЛС] 
Показать сообщения:    
Ответить на тему

Текущее время: Сегодня 22:11

Часовой пояс: GMT + 4



Вы не можете начинать темы
Вы не можете отвечать на сообщения
Вы не можете редактировать свои сообщения
Вы не можете удалять свои сообщения
Вы не можете голосовать в опросах
Вы не можете прикреплять файлы к сообщениям
Вы не можете скачивать файлы

▼ Вниз