ML
     
  Уважаемый Гость!
Вы можете поддержать проект и зарегистрироваться у наших партнеров - онлайн-стратегия MyLands. При регистрации в игре Вы получите код, который сможете активировать после регистрации на pirat.ca и получить 1000 дублонов.

Ваш код:
cc3be08b7507661c03e0a2f582d0da3a659ea55a
 
     

Чемпионат Мира 2014 / FIFA 2014 / Камерун – Бразилия / Группа A. 3-й тур [24.06.2014, Спорт 1 HD, Футбол, H.264, 50fps, HDTVRip/720p]

Ответить на тему
 
Автор
Сообщение

Пост 30-Июн-2014 15:50

[Q] 

UcrusPazzo

Чемпионат Мира 2014 / FIFA 2014
Камерун – Бразилия / Группа A. 3-й тур
-Год выпуска: 24.06.2014
Вид спорта: Футбол
Участники: Камерун – Бразилия
Продолжительность: 01:47:12
Комментарий: русский (Алексей Осин)-Автор рипа / записи: Striker
-Описание:
24 июня 2014 года, вторник. 00:00 мск
Группа A. 3-й тур
Стадион: Манэ Гарринча - Национальный (Бразилиа, Бразилия)
Главный судья: Юнас Эрикссон (Сигтуна, Швеция); Ассистент: Матиас Класениус (Швеция); Ассистент: Даниэль Варнмарк (Швеция)-Качество видео: HDTVRip
Контейнер: MKV
Видео кодек: H.264
Аудио кодек: AC3
Видео: 3994 Кбит/сек; 1280*720 (16:9); в 50,000 кадров/сек; 0.087 Бит/(Пиксели*Кадры); AVC
Аудио: 192 Кбит/сек; 48,0 КГц; 16 бит; 2 канала; АС-3
Камерун
Вратари
1 Лоик Феджу Котон Спорт
16 Шарль Итанж Коньяспор
23 Самми Н’Джок Фетхиеспор
Защитники
2 Бенуа Ассу-Экотто Куинз Парк Рейнджерс
3 Николя Н’Кулу Марсель
4 Седрик Джёгуэ Котон Спорт
5 Дани Нункё Бешикташ
12 Анри Бедимо Лион
14 Орельен Шеджу Галатасарай
22 Аллан Ньом Гранада
Полузащитники
6 Алекс Сонг Барселона
7 Ландри Н’Гемо Бордо
11 Жан Макун Ренн
17 Стефан Мбиа Севилья
18 Эйонг Эно Антальяспор
20 Эдгар Салли Ланс
21 Жоэль Матип Шальке 04
Нападающие
8 Бенжамин Муканджо Нанси
9 Самюэль Это’о (к) Челси
10 Венсан Абубакар Лорьян
13 Эрик Шупо-Мотинг Майнц
15 Пьер Вебо Фенербахче
19 Фабрис Олинга Зюлте-Варегем
Главный тренер Фолькер Финке Германия-Бразилия
Вратари
1 Джефферсон Ботафого
12 Жулио Сезар Торонто
22 Виктор Атлетико Минейро
Защитники
2 Дани Алвес Барселона
3 Тиаго Силва (к) Пари Сен-Жермен
4 Давид Луис Челси[2]
6 Марсело Реал Мадрид
13 Данте Бавария
14 Максвелл Пари Сен-Жермен
15 Энрике Наполи
23 Майкон Рома
Полузащитники
5 Фернандиньо Манчестер Сити
8 Паулиньо Тоттенхэм Хотспур
11 Оскар Челси
16 Рамирес Челси
17 Луис Густаво Вольфсбург
18 Эрнанес Интернационале
19 Виллиан Челси
Нападающие
7 Халк Зенит (Санкт-Петербург)
9 Фред Флуминенсе
10 Неймар Барселона
20 Бернард Шахтёр (Донецк)
21 Жо Атлетико Минейро
Главный тренер Луис Фелипе Сколари Бразилия
Общее
Уникальный идентификатор : 220553495336755878158031710667177203289 (0xA5ED0EDFB2390F62BA247B3FF8281659)
Формат : Matroska
Версия формата : Version 4 / Version 2
Размер файла : 3,20 Гбайт
Продолжительность : 1 ч. 47 м.
Общий поток : 4271 Кбит/сек
Дата кодирования : UTC 2014-06-24 00:22:09
Программа кодирования : mkvmerge v7.0.0 ('Where We Going') 64bit built on Jun 9 2014 15:16:27
Библиотека кодирования : libebml v1.3.0 + libmatroska v1.4.1
Видео
Идентификатор : 1
Формат : AVC
Формат/Информация : Advanced Video Codec
Профиль формата : [email protected]
Параметр CABAC формата : Да
Параметр ReFrames формата : 4 кадра
Параметр GOP формата : M=2, N=15
Идентификатор кодека : V_MPEG4/ISO/AVC
Продолжительность : 1 ч. 47 м.
Битрейт : 3994 Кбит/сек
Ширина : 1280 пикселей
Высота : 720 пикселей
Соотношение сторон : 16:9
Режим частоты кадров : Постоянный
Частота кадров : 50,000 кадров/сек
Цветовое пространство : YUV
Субдискретизация насыщенности : 4:2:0
Битовая глубина : 8 бит
Тип развёртки : Прогрессивная
Бит/(Пиксели*Кадры) : 0.087
Размер потока : 2,99 Гбайт (94%)
Default : Да
Forced : Нет
Основные цвета : BT.709
Характеристики трансфера : BT.709
Коэффициенты матрицы : BT.709
DURATION : 01:47:12.060000000
NUMBER_OF_FRAMES : 321603
NUMBER_OF_BYTES : 3277240238
_STATISTICS_WRITING_APP : mkvmerge v7.0.0 ('Where We Going') 64bit built on Jun 9 2014 15:16:27
_STATISTICS_WRITING_DATE_UTC : 2014-06-24 00:22:09
_STATISTICS_TAGS : BPS DURATION NUMBER_OF_FRAMES NUMBER_OF_BYTES
Аудио
Идентификатор : 2
Формат : AC-3
Формат/Информация : Audio Coding 3
Расширение режима : CM (complete main)
Параметр Endianness формата : Big
Идентификатор кодека : A_AC3
Продолжительность : 1 ч. 47 м.
Вид битрейта : Постоянный
Битрейт : 192 Кбит/сек
Каналы : 2 канала
Расположение каналов : Front: L R
Частота : 48,0 КГц
Битовая глубина : 16 бит
Метод сжатия : С потерями
Размер потока : 147 Мбайт (4%)
Язык : Russian
Default : Да
Forced : Нет
DURATION : 01:47:12.024000000
NUMBER_OF_FRAMES : 200998
NUMBER_OF_BYTES : 154366464
_STATISTICS_WRITING_APP : mkvmerge v7.0.0 ('Where We Going') 64bit built on Jun 9 2014 15:16:27
_STATISTICS_WRITING_DATE_UTC : 2014-06-24 00:22:09
_STATISTICS_TAGS : BPS DURATION NUMBER_OF_FRAMES NUMBER_OF_BYTES
Download / Скачать

Хотите скачать бесплатно? Зарегистрируйтесь на сайте (ссылка на регистрацию). Pirat.ca - самый быстрый торрент трекер в рунете!

Как скачивать  ·   Что такое торрент  ·   Рейтинг и ограничения

Показать сообщения:    
Ответить на тему

Текущее время: Сегодня 05:09

Часовой пояс: GMT + 4



Вы не можете начинать темы
Вы не можете отвечать на сообщения
Вы не можете редактировать свои сообщения
Вы не можете удалять свои сообщения
Вы не можете голосовать в опросах
Вы не можете прикреплять файлы к сообщениям
Вы не можете скачивать файлы

▼ Вниз