ML
     
  Уважаемый Гость!
Вы можете поддержать проект и зарегистрироваться у наших партнеров - онлайн-стратегия MyLands. При регистрации в игре Вы получите код, который сможете активировать после регистрации на pirat.ca и получить 1000 дублонов.

Ваш код:
fcd618d94adc1456bccbde5047c9cd0930e4ae4d
 
     

Чемпионат Мира 2014 / FIFA 2014 / Хорватия – Мексика / Группа A. 3-й тур [24.06.2014, Спорт 1 HD, Футбол, H.264, 50fps, HDTVRip/720p]

Ответить на тему
 
Автор
Сообщение

Пост 30-Июн-2014 15:50

[Q] 

UcrusPazzo

Чемпионат Мира 2014 / FIFA 2014
Хорватия – Мексика / Группа A. 3-й тур
-Год выпуска: 24.06.2014
Вид спорта: Футбол
Участники: Хорватия – Мексика
Продолжительность: 01:42:37
Комментарий матча: русский (Роман Трушечкин)-Автор рипа / записи: Striker
-Описание:
24 июня 2014 года, вторник. 00:00 мск
Группа A. 3-й тур
Стадион: Арена Пернамбуку (Ресифи, Бразилия)
Главный судья: Равшан Ирматов (Ташкент, Узбекистан); Ассистент: Абдухамидулло Расулов (Ташкент, Узбекистан); Ассистент: Бахадыр Кочкаров (Киргизия)-Качество видео: HDTVRip
Контейнер: MKV
Видео кодек: H.264
Аудио кодек: AC3
Видео: 3993 Кбит/сек; 1280*720 (16:9); в 50,000 кадров/сек; 0.087 Бит/(Пиксели*Кадры); AVC
Аудио: 192 Кбит/сек; 48,0 КГц; 16 бит; 2 канала; АС-3
Хорватия
Вратари
1 Стипе Плетикоса Ростов
12 Оливер Зеленика Локомотива
23 Даниел Субашич Монако
Защитники
2 Шиме Врсалько Дженоа
3 Даниел Праньич Панатинаикос
5 Ведран Чорлука Локомотив (Москва)
6 Деян Ловрен Саутгемптон
11 Дарио Срна (к) Шахтёр (Донецк)
13 Гордон Шильденфельд Панатинаикос
21 Домагой Вида Динамо (Киев)
Полузащитники
4 Иван Перишич Вольфсбург
7 Иван Ракитич Севилья
8 Огнен Вукоевич Динамо (Киев)
10 Лука Модрич Реал Мадрид
14 Марцело Брозович Динамо (Загреб)
15 Милан Бадель Гамбург
19 Саммир Хетафе
20 Матео Ковачич Интернационале
Нападающие
9 Никица Елавич Халл Сити
16 Анте Ребич Фиорентина
17 Марио Манджукич Бавария
18 Ивица Олич Вольфсбург
22 Эдуардо Шахтёр (Донецк)
Главный тренер Нико Ковач Хорватия-Мексика
Вратари
1 Хосе Корона Крус Асуль
12 Альфредо Талавера Толука
13 Гильермо Очоа Аяччо
Защитники
2 Франсиско Хавьер Родригес Америка
3 Карлос Сальсидо Тигрес
4 Рафаэль Маркес (к) Леон
5 Диего Рейес Порту
7 Мигель Лайюн Америка
15 Эктор Морено Эспаньол
18 Андрес Гуардадо Байер 04
22 Пауль Агилар Америка
Полузащитники
6 Эктор Эррера Порту
8 Марко Фабиан Крус Асуль
16 Мигель Анхель Понсе[3] Толука
17 Исаак Брисуэла Толука
20 Хавьер Акино[4] Вильярреал
21 Карлос Пенья Леон
23 Хуан Хосе Васкес Леон
Нападающие
9 Рауль Хименес Америка
10 Джовани дос Сантос Вильярреал
11 Алан Пулидо Тигрес
14 Хавьер Эрнандес Манчестер Юнайтед
19 Орибе Перальта Сантос Лагуна
Главный тренер Мигель Эррера Мексика
Общее
Уникальный идентификатор : 197083584287855705578280955197899667745 (0x9444EAEB49CEBE3A9EB912AA6603F921)
Формат : Matroska
Версия формата : Version 4 / Version 2
Размер файла : 3,06 Гбайт
Продолжительность : 1 ч. 42 м.
Общий поток : 4269 Кбит/сек
Дата кодирования : UTC 2014-06-23 22:06:37
Программа кодирования : mkvmerge v7.0.0 ('Where We Going') 64bit built on Jun 9 2014 15:16:27
Библиотека кодирования : libebml v1.3.0 + libmatroska v1.4.1
Видео
Идентификатор : 1
Формат : AVC
Формат/Информация : Advanced Video Codec
Профиль формата : [email protected]
Параметр CABAC формата : Да
Параметр ReFrames формата : 4 кадра
Параметр GOP формата : M=2, N=15
Идентификатор кодека : V_MPEG4/ISO/AVC
Продолжительность : 1 ч. 42 м.
Битрейт : 3993 Кбит/сек
Ширина : 1280 пикселей
Высота : 720 пикселей
Соотношение сторон : 16:9
Режим частоты кадров : Постоянный
Частота кадров : 50,000 кадров/сек
Цветовое пространство : YUV
Субдискретизация насыщенности : 4:2:0
Битовая глубина : 8 бит
Тип развёртки : Прогрессивная
Бит/(Пиксели*Кадры) : 0.087
Размер потока : 2,86 Гбайт (94%)
Default : Да
Forced : Нет
Основные цвета : BT.709
Характеристики трансфера : BT.709
Коэффициенты матрицы : BT.709
DURATION : 01:42:36.760000000
NUMBER_OF_FRAMES : 307838
NUMBER_OF_BYTES : 3135528567
_STATISTICS_WRITING_APP : mkvmerge v7.0.0 ('Where We Going') 64bit built on Jun 9 2014 15:16:27
_STATISTICS_WRITING_DATE_UTC : 2014-06-23 22:06:37
_STATISTICS_TAGS : BPS DURATION NUMBER_OF_FRAMES NUMBER_OF_BYTES
Аудио
Идентификатор : 2
Формат : AC-3
Формат/Информация : Audio Coding 3
Расширение режима : CM (complete main)
Параметр Endianness формата : Big
Идентификатор кодека : A_AC3
Продолжительность : 1 ч. 42 м.
Вид битрейта : Постоянный
Битрейт : 192 Кбит/сек
Каналы : 2 канала
Расположение каналов : Front: L R
Частота : 48,0 КГц
Битовая глубина : 16 бит
Метод сжатия : С потерями
Размер потока : 141 Мбайт (4%)
Язык : Russian
Default : Да
Forced : Нет
DURATION : 01:42:36.724000000
NUMBER_OF_FRAMES : 192395
NUMBER_OF_BYTES : 147759360
_STATISTICS_WRITING_APP : mkvmerge v7.0.0 ('Where We Going') 64bit built on Jun 9 2014 15:16:27
_STATISTICS_WRITING_DATE_UTC : 2014-06-23 22:06:37
_STATISTICS_TAGS : BPS DURATION NUMBER_OF_FRAMES NUMBER_OF_BYTES
Download / Скачать

Хотите скачать бесплатно? Зарегистрируйтесь на сайте (ссылка на регистрацию). Pirat.ca - самый быстрый торрент трекер в рунете!

Как скачивать  ·   Что такое торрент  ·   Рейтинг и ограничения

Показать сообщения:    
Ответить на тему

Текущее время: Сегодня 12:49

Часовой пояс: GMT + 4



Вы не можете начинать темы
Вы не можете отвечать на сообщения
Вы не можете редактировать свои сообщения
Вы не можете удалять свои сообщения
Вы не можете голосовать в опросах
Вы не можете прикреплять файлы к сообщениям
Вы не можете скачивать файлы

▼ Вниз