ML
     
  Уважаемый Гость!
Вы можете поддержать проект и зарегистрироваться у наших партнеров - онлайн-стратегия MyLands. При регистрации в игре Вы получите код, который сможете активировать после регистрации на pirat.ca и получить 1000 дублонов.

Ваш код:
4fbd9898b6f10799a3e8edf60f31febd2bc15453
 
     

Чемпионат Мира 2014 / FIFA 2014 / Италия – Уругвай / Группа D. 3-й тур [24.06.2014, Спорт 1 HD, Футбол, H.264, 50fps, HDTVRip/720p]

Ответить на тему
 
Автор
Сообщение

Пост 30-Июн-2014 16:20

[Q] 

UcrusPazzo

Чемпионат Мира 2014 / FIFA 2014
Италия – Уругвай / Группа D. 3-й тур
-Год выпуска: 24.06.2014
Вид спорта: Футбол
Участники: Италия – Уругвай
Продолжительность: 02:02:52
Комментарий: русский (Александр Неценко)-Автор рипа / записи: Striker
-Описание:
24 июня 2014 года, вторник. 20:00 мск
Группа D. 3-й тур
Стадион: Арена дас Дунас (Натал, Бразилия) Зрителей: 39706 (вместимость – 42086)
Главный судья: Марко Родригес Морено (Мехико, Мексика); Ассистент: Марвин Торрентера (Мексика); Ассистент: Маркос Кинтеро (Мексика)-Качество видео: HDTVRip
Контейнер: MKV
Видео кодек: H.264
Аудио кодек: AC3
Видео: 4007 Кбит/сек; 1280*720 (16:9); в 50,000 кадров/сек; 0.087 Бит/(Пиксели*Кадры); AVC
Аудио: 192 Кбит/сек; 48,0 КГц; 16 бит; 2 канала; АС-3
Италия
Вратари

1 Джанлуиджи Буффон (к) Ювентус
12 Сальваторе Сиригу Пари Сен-Жермен
13 Маттиа Перин Дженоа
Защитники
2 Маттия Де Шильо Милан
3 Джорджо Кьеллини Ювентус
4 Маттео Дармиан Торино
7 Иньяцио Абате Милан
15 Андреа Бардзальи Ювентус
19 Леонардо Бонуччи Ювентус
20 Гиэль Палетта Парма
Полузащитники
5 Тиагу Мотта Пари Сен-Жермен
6 Антонио Кандрева Лацио
8 Клаудио Маркизио Ювентус
14 Альберто Аквилани Фиорентина
16 Даниеле Де Росси Рома
18 Марко Пароло Парма
21 Андреа Пирло Ювентус
23 Марко Верратти Пари Сен-Жермен
Нападающие
9 Марио Балотелли Милан
10 Антонио Кассано Парма
11 Алессио Черчи Торино
17 Чиро Иммобиле Боруссия (Дортмунд)
22 Лоренцо Инсинье
Главный тренер Чезаре Пранделли Италия-Уругвай
Вратари

1 Фернандо Муслера Галатасарай
12 Родриго Муньос Либертад
23 Мартин Сильва Васко да Гама
Защитники
2 Диего Лугано (к) Вест Бромвич Альбион
3 Диего Годин Атлетико Мадрид
4 Хорхе Фусиле Порту
13 Хосе Мария Хименес Атлетико Мадрид
16 Максимильяно Перейра Бенфика (Лиссабон)
19 Себастьян Коатес Ливерпуль
22 Мартин Касерес Ювентус
Полузащитники
5 Вальтер Гаргано Парма
6 Альваро Перейра Сан-Паулу
7 Кристиан Родригес Атлетико Мадрид
14 Николас Лодейро Ботафого
15 Диего Перес Болонья
17 Эхидио Аревало Риос Монаркас Морелия
18 Гастон Рамирес Саутгемптон
20 Альваро Гонсалес Лацио
Нападающие
8 Абель Эрнандес Палермо
9 Луис Суарес Ливерпуль
10 Диего Форлан Сересо Осака
11 Кристиан Стуани Эспаньол
21 Эдинсон Кавани Пари Сен-Жермен
Главный тренер Оскар Табарес Уругвай
Общее
Уникальный идентификатор : 214427958916685657424764898892965724561 (0xA151529C694F7EA285145F4A978FC191)
Формат : Matroska
Версия формата : Version 4 / Version 2
Размер файла : 3,68 Гбайт
Продолжительность : 2 ч. 2 м.
Общий поток : 4284 Кбит/сек
Дата кодирования : UTC 2014-06-24 18:55:04
Программа кодирования : mkvmerge v7.0.0 ('Where We Going') 64bit built on Jun 9 2014 15:16:27
Библиотека кодирования : libebml v1.3.0 + libmatroska v1.4.1
Видео
Идентификатор : 1
Формат : AVC
Формат/Информация : Advanced Video Codec
Профиль формата : [email protected]
Параметр CABAC формата : Да
Параметр ReFrames формата : 4 кадра
Параметр GOP формата : M=2, N=15
Идентификатор кодека : V_MPEG4/ISO/AVC
Продолжительность : 2 ч. 2 м.
Битрейт : 4007 Кбит/сек
Ширина : 1280 пикселей
Высота : 720 пикселей
Соотношение сторон : 16:9
Режим частоты кадров : Постоянный
Частота кадров : 50,000 кадров/сек
Цветовое пространство : YUV
Субдискретизация насыщенности : 4:2:0
Битовая глубина : 8 бит
Тип развёртки : Прогрессивная
Бит/(Пиксели*Кадры) : 0.087
Размер потока : 3,44 Гбайт (94%)
Default : Да
Forced : Нет
Основные цвета : BT.709
Характеристики трансфера : BT.709
Коэффициенты матрицы : BT.709
DURATION : 02:02:52.180000000
NUMBER_OF_FRAMES : 368609
NUMBER_OF_BYTES : 3767990818
_STATISTICS_WRITING_APP : mkvmerge v7.0.0 ('Where We Going') 64bit built on Jun 9 2014 15:16:27
_STATISTICS_WRITING_DATE_UTC : 2014-06-24 18:55:04
_STATISTICS_TAGS : BPS DURATION NUMBER_OF_FRAMES NUMBER_OF_BYTES
Аудио
Идентификатор : 2
Формат : AC-3
Формат/Информация : Audio Coding 3
Расширение режима : CM (complete main)
Параметр Endianness формата : Big
Идентификатор кодека : A_AC3
Продолжительность : 2 ч. 2 м.
Вид битрейта : Постоянный
Битрейт : 192 Кбит/сек
Каналы : 2 канала
Расположение каналов : Front: L R
Частота : 48,0 КГц
Битовая глубина : 16 бит
Метод сжатия : С потерями
Размер потока : 169 Мбайт (4%)
Язык : Russian
Default : Да
Forced : Нет
DURATION : 02:02:52.144000000
NUMBER_OF_FRAMES : 230375
NUMBER_OF_BYTES : 176928000
_STATISTICS_WRITING_APP : mkvmerge v7.0.0 ('Where We Going') 64bit built on Jun 9 2014 15:16:27
_STATISTICS_WRITING_DATE_UTC : 2014-06-24 18:55:04
_STATISTICS_TAGS : BPS DURATION NUMBER_OF_FRAMES NUMBER_OF_BYTES
Download / Скачать

Хотите скачать бесплатно? Зарегистрируйтесь на сайте (ссылка на регистрацию). Pirat.ca - самый быстрый торрент трекер в рунете!

Как скачивать  ·   Что такое торрент  ·   Рейтинг и ограничения

Показать сообщения:    
Ответить на тему

Текущее время: Сегодня 20:00

Часовой пояс: GMT + 4



Вы не можете начинать темы
Вы не можете отвечать на сообщения
Вы не можете редактировать свои сообщения
Вы не можете удалять свои сообщения
Вы не можете голосовать в опросах
Вы не можете прикреплять файлы к сообщениям
Вы не можете скачивать файлы

▼ Вниз