ML
     
  Уважаемый Гость!
Вы можете поддержать проект и зарегистрироваться у наших партнеров - онлайн-стратегия MyLands. При регистрации в игре Вы получите код, который сможете активировать после регистрации на pirat.ca и получить 1000 дублонов.

Ваш код:
0ea1bf889af42fca5f67d0a391efb3400850ad7c
 
     

Чемпионат Мира 2014 / FIFA 2014 / Коста-Рика – Англия / Группа D. 3-й тур [24.06.2014, Спорт 1 HD, Футбол, H.264, 50fps, HDTVRip/720p]

Ответить на тему
 
Автор
Сообщение

Пост 30-Июн-2014 16:21

[Q] 

UcrusPazzo

Чемпионат Мира 2014 / FIFA 2014
Коста-Рика – Англия / Группа D. 3-й тур
-Год выпуска: 24.06.2014
Вид спорта: Футбол
Участники: Коста-Рика – Англия
Продолжительность: 01:37:13
Комментарий: русский (Александр Гришин)-Автор рипа / записи: Striker
-Описание:
24 июня 2014 года, вторник. 20:00 мск
Группа D. 3-й тур
Стадион: Минейрао - Губернатор Магальянс Пинту (Белу-Оризонти, Бразилия) Зрителей: 57823 (вместимость – 58170)
Главный судья: Джамель Хаймуди (Релизан, Алжир); Ассистент: Редуане Ачик (Релизан, Марокко); Ассистент: Абделхалк Этшиали (Алжир)-Качество видео: HDTVRip
Контейнер: MKV
Видео кодек: H.264
Аудио кодек: AC3
Видео: 3984 Кбит/сек; 1280*720 (16:9); в 50,000 кадров/сек; 0.086 Бит/(Пиксели*Кадры); AVC
Аудио: 192 Кбит/сек; 48,0 КГц; 16 бит; 2 канала; АС-3
Коста-Рика
Вратари

1 Кейлор Навас Леванте
18 Патрик Пембертон Алахуэленсе
23 Даниэль Камбронеро Эредиано
Защитники
2 Джонни Акоста Алахуэленсе
3 Джанкарло Гонсалес Коламбус Крю
4 Майкл Уманья Саприсса
6 Оскар Дуарте Брюгге
8 Давид Майри[8] Эредиано
12 Уэйлон Фрэнсис Коламбус Крю
15 Хуниор Диас Майнц 05
16 Кристиан Гамбоа Русенборг
19 Рой Миллер Нью-Йорк Ред Буллз
Полузащитники
5 Сельсо Борхес АИК
7 Кристиан Боланьос Копенгаген
11 Микаэль Баррантес Олесунн
13 Эстебан Гранадос Эредиано
17 Ельцин Техеда Саприсса
20 Диего Кальво Волеренга
22 Хосе Мигель Куберо Эредиано
Нападающие
9 Хоэль Кэмпбелл Олимпиакос (Пирей)
10 Брайан Руис (к) ПСВ
14 Рэндалл Бренес Картагинес
21 Маркос Уренья Кубань
Главный тренер Хорхе Луис Пинто Колумбия-Англия
Вратари

1 Джо Харт Манчестер Сити
13 Бен Фостер Вест Бромвич Альбион
22 Фрейзер Форстер Селтик
Защитники
2 Глен Джонсон Ливерпуль
3 Лейтон Бейнс Эвертон
5 Гари Кэхилл Челси
6 Фил Джагелка Эвертон
12 Крис Смоллинг Манчестер Юнайтед
16 Фил Джонс Манчестер Юнайтед
23 Люк Шоу Саутгемптон
Полузащитники
4 Стивен Джеррард (к) Ливерпуль
7 Джек Уилшир Арсенал
8 Фрэнк Лэмпард Челси
14 Джордан Хендерсон Ливерпуль
15 Алекс Окслейд-Чемберлен Арсенал
17 Джеймс Милнер Манчестер Сити
19 Рахим Стерлинг Ливерпуль
20 Адам Лаллана Саутгемптон
21 Росс Баркли Эвертон
Нападающие
9 Дэниел Старридж Ливерпуль
10 Уэйн Руни Манчестер Юнайтед
11 Дэнни Уэлбек Манчестер Юнайтед
18 Рики Ламберт Ливерпуль
Главный тренер Рой Ходжсон Англия
Общее
Уникальный идентификатор : 217639793331937760822242320164896747886 (0xA3BBE6461442A00092165AD8DDADB16E)
Формат : Matroska
Версия формата : Version 4 / Version 2
Размер файла : 2,89 Гбайт
Продолжительность : 1 ч. 37 м.
Общий поток : 4261 Кбит/сек
Дата кодирования : UTC 2014-06-24 21:03:07
Программа кодирования : mkvmerge v7.0.0 ('Where We Going') 64bit built on Jun 9 2014 15:16:27
Библиотека кодирования : libebml v1.3.0 + libmatroska v1.4.1
Видео
Идентификатор : 1
Формат : AVC
Формат/Информация : Advanced Video Codec
Профиль формата : [email protected]
Параметр CABAC формата : Да
Параметр ReFrames формата : 4 кадра
Параметр GOP формата : M=2, N=15
Идентификатор кодека : V_MPEG4/ISO/AVC
Продолжительность : 1 ч. 37 м.
Битрейт : 3984 Кбит/сек
Ширина : 1280 пикселей
Высота : 720 пикселей
Соотношение сторон : 16:9
Режим частоты кадров : Постоянный
Частота кадров : 50,000 кадров/сек
Цветовое пространство : YUV
Субдискретизация насыщенности : 4:2:0
Битовая глубина : 8 бит
Тип развёртки : Прогрессивная
Бит/(Пиксели*Кадры) : 0.086
Размер потока : 2,71 Гбайт (94%)
Default : Да
Forced : Нет
Основные цвета : BT.709
Характеристики трансфера : BT.709
Коэффициенты матрицы : BT.709
DURATION : 01:37:13.000000000
NUMBER_OF_FRAMES : 291650
NUMBER_OF_BYTES : 2964296014
_STATISTICS_WRITING_APP : mkvmerge v7.0.0 ('Where We Going') 64bit built on Jun 9 2014 15:16:27
_STATISTICS_WRITING_DATE_UTC : 2014-06-24 21:03:07
_STATISTICS_TAGS : BPS DURATION NUMBER_OF_FRAMES NUMBER_OF_BYTES
Аудио
Идентификатор : 2
Формат : AC-3
Формат/Информация : Audio Coding 3
Расширение режима : CM (complete main)
Параметр Endianness формата : Big
Идентификатор кодека : A_AC3
Продолжительность : 1 ч. 37 м.
Вид битрейта : Постоянный
Битрейт : 192 Кбит/сек
Каналы : 2 канала
Расположение каналов : Front: L R
Частота : 48,0 КГц
Битовая глубина : 16 бит
Метод сжатия : С потерями
Размер потока : 134 Мбайт (5%)
Язык : Russian
Default : Да
Forced : Нет
DURATION : 01:37:12.964000000
NUMBER_OF_FRAMES : 182278
NUMBER_OF_BYTES : 139989504
_STATISTICS_WRITING_APP : mkvmerge v7.0.0 ('Where We Going') 64bit built on Jun 9 2014 15:16:27
_STATISTICS_WRITING_DATE_UTC : 2014-06-24 21:03:07
_STATISTICS_TAGS : BPS DURATION NUMBER_OF_FRAMES NUMBER_OF_BYTES
Download / Скачать

Хотите скачать бесплатно? Зарегистрируйтесь на сайте (ссылка на регистрацию). Pirat.ca - самый быстрый торрент трекер в рунете!

Как скачивать  ·   Что такое торрент  ·   Рейтинг и ограничения

Reno-19

420

Пост 25-Окт-2014 17:08 (спустя 3 месяца 25 дней)

[Q] 

Хоть слово кто-нибудь скажет... Ку три раза
[Профиль]  [ЛС] 
Показать сообщения:    
Ответить на тему

Текущее время: Сегодня 00:38

Часовой пояс: GMT + 4



Вы не можете начинать темы
Вы не можете отвечать на сообщения
Вы не можете редактировать свои сообщения
Вы не можете удалять свои сообщения
Вы не можете голосовать в опросах
Вы не можете прикреплять файлы к сообщениям
Вы не можете скачивать файлы

▼ Вниз