ML
     
  Уважаемый Гость!
Вы можете поддержать проект и зарегистрироваться у наших партнеров - онлайн-стратегия MyLands. При регистрации в игре Вы получите код, который сможете активировать после регистрации на pirat.ca и получить 1000 дублонов.

Ваш код:
822959f93c00d34653763d5bbf9ee9a7134af98a
 
     

Чемпионат Мира 2014 / FIFA 2014 / Япония – Колумбия / Группа C. 3-й тур [25.06.2014, Спорт 1 HD, Футбол, H.264, 50fps, HDTVRip/720p]

Ответить на тему
 
Автор
Сообщение

Пост 30-Июн-2014 16:22

[Q] 

UcrusPazzo

Чемпионат Мира 2014 / FIFA 2014
Япония – Колумбия / Группа C. 3-й тур
-Год выпуска: 25.06.2014
Вид спорта: Футбол
Участники: Япония – Колумбия
Продолжительность: 01:44:02
Комментарий: русский (Сергей Кривохарченко)-Автор рипа / записи: Striker
-Описание:
25 июня 2014 года, среда. 00:00 мск
Группа C. 3-й тур
Стадион: Арена Пантанал (Куяба, Бразилия) Зрителей: 40340 (вместимость – 42968)
Главный судья: Педру Проэнса (Лиссабон, Португалия); Ассистент: Бертину Миранда (Порту, Португалия); Ассистент: Жозе Тригу (Лиссабон, Португалия)-Качество видео: HDTVRip
Контейнер: MKV
Видео кодек: H.264
Аудио кодек: AC3
Видео: 3968 Кбит/сек; 1280*720 (16:9); в 50,000 кадров/сек; 0.086 Бит/(Пиксели*Кадры); AVC
Аудио: 192 Кбит/сек; 48,0 КГц; 16 бит; 2 канала; АС-3
Япония
Вратари

1 Эйдзи Кавасима Стандард
12 Сюсаку Нисикава Урава Ред Даймондс
23 Сюити Гонда Токио
Защитники
2 Ацуто Утида Шальке 04
3 Готоку Сакаи Штутгарт
5 Юто Нагатомо Интернационале
6 Масато Морисигэ Токио
15 Ясуюки Конно Гамба Осака
19 Масахико Иноха Джубило Ивата
21 Хироки Сакаи Ганновер 96
22 Мая Ёсида Саутгемптон
Полузащитники
4 Кэйсукэ Хонда Милан
7 Ясухито Эндо Гамба Осака
8 Хироси Киётакэ Нюрнберг
10 Синдзи Кагава Манчестер Юнайтед
14 Тосихиро Аояма Санфречче Хиросима
16 Хотару Ямагути Сересо Осака
17 Макото Хасэбэ (к) Нюрнберг
Нападающие
9 Синдзи Окадзаки Майнц 05
11 Ёитиро Какитани Сересо Осака
13 Ёсито Окубо Кавасаки Фронтале
18 Юя Осако Мюнхен 1860
20 Манабу Сайто Иокогама Ф. Маринос
Главный тренер Альберто Дзаккерони Италия-Колумбия
Вратари

1 Давид Оспина Ницца
12 Камило Варгас Санта-Фе
22 Фарид Мондрагон Депортиво Кали
Защитники
2 Кристиан Сапата Милан
3 Марио Йепес (к) Аталанта
4 Сантьяго Ариас ПСВ
7 Пабло Армеро Вест Хэм Юнайтед
16 Эдер Альварес Ривер Плейт
18 Хуан Суньига Наполи
23 Карлос Вальдес Сан-Лоренсо
Полузащитники
5 Карлос Карбонеро[7] Ривер Плейт
6 Карлос Санчес Эльче
8 Абель Агилар Тулуза
10 Хамес Родригес Монако
11 Хуан Куадрадо Фиорентина
13 Фредди Гуарин Интернационале
15 Александр Мехия Атлетико Насьональ
20 Хуан Кинтеро Порту
Нападающие
9 Теофило Гутьеррес Ривер Плейт
14 Виктор Ибарбо Кальяри
17 Карлос Бакка Севилья
19 Адриан Рамос Боруссия (Дортмунд)
21 Джексон Мартинес Порту
Главный тренер Хосе Пекерман Аргентина
Общее
Уникальный идентификатор : 245398765922909462017105173510818714946 (0xB89E154A045D4D73B0FA9FC397855542)
Формат : Matroska
Версия формата : Version 4 / Version 2
Размер файла : 3,08 Гбайт
Продолжительность : 1 ч. 44 м.
Общий поток : 4245 Кбит/сек
Дата кодирования : UTC 2014-06-24 23:16:33
Программа кодирования : mkvmerge v7.0.0 ('Where We Going') 64bit built on Jun 9 2014 15:16:27
Библиотека кодирования : libebml v1.3.0 + libmatroska v1.4.1
Видео
Идентификатор : 1
Формат : AVC
Формат/Информация : Advanced Video Codec
Профиль формата : [email protected]
Параметр CABAC формата : Да
Параметр ReFrames формата : 4 кадра
Параметр GOP формата : M=2, N=15
Идентификатор кодека : V_MPEG4/ISO/AVC
Продолжительность : 1 ч. 44 м.
Битрейт : 3968 Кбит/сек
Ширина : 1280 пикселей
Высота : 720 пикселей
Соотношение сторон : 16:9
Режим частоты кадров : Постоянный
Частота кадров : 50,000 кадров/сек
Цветовое пространство : YUV
Субдискретизация насыщенности : 4:2:0
Битовая глубина : 8 бит
Тип развёртки : Прогрессивная
Бит/(Пиксели*Кадры) : 0.086
Размер потока : 2,88 Гбайт (93%)
Default : Да
Forced : Нет
Основные цвета : BT.709
Характеристики трансфера : BT.709
Коэффициенты матрицы : BT.709
DURATION : 01:44:01.840000000
NUMBER_OF_FRAMES : 312092
NUMBER_OF_BYTES : 3159681931
_STATISTICS_WRITING_APP : mkvmerge v7.0.0 ('Where We Going') 64bit built on Jun 9 2014 15:16:27
_STATISTICS_WRITING_DATE_UTC : 2014-06-24 23:16:33
_STATISTICS_TAGS : BPS DURATION NUMBER_OF_FRAMES NUMBER_OF_BYTES
Аудио
Идентификатор : 2
Формат : AC-3
Формат/Информация : Audio Coding 3
Расширение режима : CM (complete main)
Параметр Endianness формата : Big
Идентификатор кодека : A_AC3
Продолжительность : 1 ч. 44 м.
Вид битрейта : Постоянный
Битрейт : 192 Кбит/сек
Каналы : 2 канала
Расположение каналов : Front: L R
Частота : 48,0 КГц
Битовая глубина : 16 бит
Метод сжатия : С потерями
Размер потока : 143 Мбайт (5%)
Язык : Russian
Default : Да
Forced : Нет
DURATION : 01:44:01.804000000
NUMBER_OF_FRAMES : 195054
NUMBER_OF_BYTES : 149801472
_STATISTICS_WRITING_APP : mkvmerge v7.0.0 ('Where We Going') 64bit built on Jun 9 2014 15:16:27
_STATISTICS_WRITING_DATE_UTC : 2014-06-24 23:16:33
_STATISTICS_TAGS : BPS DURATION NUMBER_OF_FRAMES NUMBER_OF_BYTES
Download / Скачать

Хотите скачать бесплатно? Зарегистрируйтесь на сайте (ссылка на регистрацию). Pirat.ca - самый быстрый торрент трекер в рунете!

Как скачивать  ·   Что такое торрент  ·   Рейтинг и ограничения

Reno-19

420

Пост 25-Окт-2014 17:37 (спустя 3 месяца 25 дней)

[Q] 

Круто.... Всем качать!!!
[Профиль]  [ЛС] 
Показать сообщения:    
Ответить на тему

Текущее время: Сегодня 05:57

Часовой пояс: GMT + 4



Вы не можете начинать темы
Вы не можете отвечать на сообщения
Вы не можете редактировать свои сообщения
Вы не можете удалять свои сообщения
Вы не можете голосовать в опросах
Вы не можете прикреплять файлы к сообщениям
Вы не можете скачивать файлы

▼ Вниз