ML
     
  Уважаемый Гость!
Вы можете поддержать проект и зарегистрироваться у наших партнеров - онлайн-стратегия MyLands. При регистрации в игре Вы получите код, который сможете активировать после регистрации на pirat.ca и получить 1000 дублонов.

Ваш код:
2932e5898d0a27592397f70b82a5834d1e70ea19
 
     

Чемпионат Мира 2014 / FIFA 2014 / Греция – Кот-д'Ивуар / Группа C. 3-й тур [25.06.2014, Спорт 1 HD, Футбол, H.264, 50fps, HDTVRip/720p]

Ответить на тему
 
Автор
Сообщение

Пост 30-Июн-2014 16:23

[Q] 

UcrusPazzo

Чемпионат Мира 2014 / FIFA 2014
Греция – Кот-д'Ивуар / Группа C. 3-й тур
-Год выпуска: 25.06.2014
Вид спорта: Футбол
Участники: Греция – Кот-д'Ивуар
Продолжительность: 01:44:14
Комментарий: русский (Алексей Осин)-Автор рипа / записи: Striker
-Описание:
25 июня 2014 года, среда. 00:00 мск
Группа C. 3-й тур
Стадион: Кастелан (Форталеза, Бразилия) Зрителей: 59095 (вместимость – 60342)
Главный судья: Карлос Вера Родригес (Гуаякиль, Эквадор); Ассистент: Кристиан Лескано (Гуаякиль, Эквадор); Ассистент: Байрон Ромеро (Гуаякиль, Эквадор)-Качество видео: HDTVRip
Контейнер: MKV
Видео кодек: H.264
Аудио кодек: AC3
Видео: 3975 Кбит/сек; 1280*720 (16:9); в 50,000 кадров/сек; 0.086 Бит/(Пиксели*Кадры); AVC
Аудио: 192 Кбит/сек; 48,0 КГц; 16 бит; 2 канала; АС-3
Греция
Вратари

1 Орестис Карнезис Гранада
12 Панайотис Гликос ПАОК
13 Стефанос Капино Панатинаикос
Защитники
2 Иоаннис Маниатис Олимпиакос (Пирей)
3 Йоргос Цавелас ПАОК
4 Костас Манолас Олимпиакос (Пирей)
5 Вангелис Морас Эллас Верона
11 Лукас Винтра Леванте
15 Василис Торосидис Рома
19 Сократис Папастатопулос Боруссия (Дортмунд)
20 Хосе Холебас Олимпиакос (Пирей)
Полузащитники
6 Александрос Циолис Кайсериспор
8 Панайотис Коне Болонья
10 Йоргос Карагунис (к) Фулхэм
16 Лазарос Христодулопулос Болонья
18 Иоаннис Фетфацидис Дженоа
21 Костас Кацуранис ПАОК
22 Андреас Самарис Олимпиакос (Пирей)
23 Панайотис Тахцидис Торино
Нападающие
7 Йоргос Самарас Селтик
9 Константинос Митроглу Фулхэм
14 Димитрис Салпингидис ПАОК
17 Теофанис Гекас Коньяспор
Главный тренер Фернанду Сантуш Португалия-Кот-д’Ивуар
Вратари

1 Бубакар Барри Локерен
16 Сильвен Гбоуо Севе Спорт
23 Сайуба Манде Стабек
Защитники
2 Усман Вьера Ризеспор
3 Артур Бока Штутгарт
4 Коло Туре Ливерпуль
5 Дидье Зокора Трабзонспор
7 Жан-Даниэль Акпа-Акпро
17 Серж Орье Тулуза
18 Констант Джакпа Айнтрахт (Франкфурт-на-Майне)
22 Сол Бамба Трабзонспор
Полузащитники
6 Матис Болли Фортуна (Дюссельдорф)
9 Шейк Тьоте Ньюкасл Юнайтед
13 Дидье Я Конан Ганновер 96
14 Исмаэль Дьоманде Сент-Этьен
15 Макс Градель Сент-Этьен
19 Яя Туре Манчестер Сити
20 Серей Ди Базель
Нападающие
8 Саломон Калу Лилль
10 Жервиньо Рома
11 Дидье Дрогба (к) Галатасарай
12 Вильфрид Бони Суонси Сити
21 Джованни Сио Базель
Главный тренер Сабри Лямуши Франция
Общее
Уникальный идентификатор : 175992867539513538206884803477780276528 (0x8466FE4CCB6AAB46924C95ECA4D7A530)
Формат : Matroska
Версия формата : Version 4 / Version 2
Размер файла : 3,10 Гбайт
Продолжительность : 1 ч. 44 м.
Общий поток : 4251 Кбит/сек
Дата кодирования : UTC 2014-06-25 04:27:04
Программа кодирования : mkvmerge v7.0.0 ('Where We Going') 64bit built on Jun 9 2014 15:16:27
Библиотека кодирования : libebml v1.3.0 + libmatroska v1.4.1
Видео
Идентификатор : 1
Формат : AVC
Формат/Информация : Advanced Video Codec
Профиль формата : [email protected]
Параметр CABAC формата : Да
Параметр ReFrames формата : 4 кадра
Параметр GOP формата : M=2, N=15
Идентификатор кодека : V_MPEG4/ISO/AVC
Продолжительность : 1 ч. 44 м.
Битрейт : 3975 Кбит/сек
Ширина : 1280 пикселей
Высота : 720 пикселей
Соотношение сторон : 16:9
Режим частоты кадров : Постоянный
Частота кадров : 50,000 кадров/сек
Цветовое пространство : YUV
Субдискретизация насыщенности : 4:2:0
Битовая глубина : 8 бит
Тип развёртки : Прогрессивная
Бит/(Пиксели*Кадры) : 0.086
Размер потока : 2,89 Гбайт (93%)
Default : Да
Forced : Нет
Основные цвета : BT.709
Характеристики трансфера : BT.709
Коэффициенты матрицы : BT.709
DURATION : 01:44:13.760000000
NUMBER_OF_FRAMES : 312688
NUMBER_OF_BYTES : 3170722169
_STATISTICS_WRITING_APP : mkvmerge v7.0.0 ('Where We Going') 64bit built on Jun 9 2014 15:16:27
_STATISTICS_WRITING_DATE_UTC : 2014-06-25 04:27:04
_STATISTICS_TAGS : BPS DURATION NUMBER_OF_FRAMES NUMBER_OF_BYTES
Аудио
Идентификатор : 2
Формат : AC-3
Формат/Информация : Audio Coding 3
Расширение режима : CM (complete main)
Параметр Endianness формата : Big
Идентификатор кодека : A_AC3
Продолжительность : 1 ч. 44 м.
Вид битрейта : Постоянный
Битрейт : 192 Кбит/сек
Каналы : 2 канала
Расположение каналов : Front: L R
Частота : 48,0 КГц
Битовая глубина : 16 бит
Метод сжатия : С потерями
Размер потока : 143 Мбайт (5%)
Язык : Russian
Default : Да
Forced : Нет
DURATION : 01:44:13.724000000
NUMBER_OF_FRAMES : 195426
NUMBER_OF_BYTES : 150087168
_STATISTICS_WRITING_APP : mkvmerge v7.0.0 ('Where We Going') 64bit built on Jun 9 2014 15:16:27
_STATISTICS_WRITING_DATE_UTC : 2014-06-25 04:27:04
_STATISTICS_TAGS : BPS DURATION NUMBER_OF_FRAMES NUMBER_OF_BYTES
Download / Скачать

Хотите скачать бесплатно? Зарегистрируйтесь на сайте (ссылка на регистрацию). Pirat.ca - самый быстрый торрент трекер в рунете!

Как скачивать  ·   Что такое торрент  ·   Рейтинг и ограничения

Reno-19

420

Пост 25-Окт-2014 17:06 (спустя 3 месяца 25 дней)

[Q] 

Приобщаемся к спорту.... Эй, вернитесь на раздачу...
[Профиль]  [ЛС] 
Показать сообщения:    
Ответить на тему

Текущее время: Сегодня 08:05

Часовой пояс: GMT + 4



Вы не можете начинать темы
Вы не можете отвечать на сообщения
Вы не можете редактировать свои сообщения
Вы не можете удалять свои сообщения
Вы не можете голосовать в опросах
Вы не можете прикреплять файлы к сообщениям
Вы не можете скачивать файлы

▼ Вниз