ML
     
  Уважаемый Гость!
Вы можете поддержать проект и зарегистрироваться у наших партнеров - онлайн-стратегия MyLands. При регистрации в игре Вы получите код, который сможете активировать после регистрации на pirat.ca и получить 1000 дублонов.

Ваш код:
a978488e62322cd72e113ab723b8a7fdc10eb9b9
 
     

Чемпионат Мира 2014 / FIFA 2014 / Нигерия – Аргентина / Группа F. 3-й тур [25.06.2014, Спорт 1 HD, Футбол, H.264, 50fps, HDTVRip/720p]

Ответить на тему
 
Автор
Сообщение

Пост 30-Июн-2014 16:25

[Q] 

UcrusPazzo

Чемпионат Мира 2014 / FIFA 2014
Нигерия – Аргентина / Группа F. 3-й тур
-Год выпуска: 25.06.2014
Вид спорта: Футбол
Участники: Нигерия – Аргентина
Продолжительность: 02:00:36
Комментарий: русский (Сергей Кривохарченко)-Автор рипа / записи: Striker
-Описание:
25 июня 2014 года, среда. 20:00 мск
Группа F. 3-й тур
Стадион: Бейра-Рио - Жозе Пинейро Борда (Порту-Алегри, Бразилия)
Главный судья: Никола Риццоли (Болонья, Италия); Ассистент: Ренато Фаверани (Пантильяте, Италия); Ассистент: Андреа Стефани (Милан, Италия)-Качество видео: HDTVRip
Контейнер: MKV
Видео кодек: H.264
Аудио кодек: AC3
Видео: 3967 Кбит/сек; 1280*720 (16:9); в 50,000 кадров/сек; 0.086 Бит/(Пиксели*Кадры); AVC
Аудио: 192 Кбит/сек; 48,0 КГц; 16 бит; 2 канала; АС-3
Нигерия
Вратари

1 Винсент Эньеама (к) Лилль
16 Остин Эджиде Хапоэль (Беэр-Шева)
21 Чигози Агбим Гомбе Юнайтед
Защитники
2 Джозеф Йобо Норвич Сити
3 Эджике Узоеньи[15] Энугу Рейнджерс
5 Эфе Амброуз Селтик
6 Азубуйке Эгвуэкве Варри Вулвз
12 Кунле Одунлами Саншайн Старз
13 Джувон Ошанива Ашдод
14 Годфри Обоабона Ризеспор
22 Кеннет Омеруо Мидлсбро
Полузащитники
4 Реубен Габриель Васланд-Беверен
10 Джон Оби Микел Челси
15 Рамон Азиз Альмерия
17 Оджени Онази Лацио
20 Майкл Учебо Серкль Брюгге
Нападающие
7 Ахмед Муса ЦСКА (Москва)
8 Питер Одемвингие Сток Сити
9 Эммануэль Эменике Фенербахче
11 Виктор Мозес Ливерпуль
18 Мишель Бабатунде Волынь
19 Уче Нвофор Херенвеен
23 Шола Амеоби Ньюкасл Юнайтед
Главный тренер Стивен Кеши Нигерия-Аргентина
Вратари

1 Серхио Ромеро Монако
12 Агустин Орион Бока Хуниорс
21 Мариано Андухар Катания
Защитники
2 Эсекьель Гарай Бенфика[14]
3 Уго Кампаньяро Интернационале
4 Пабло Сабалета Манчестер Сити
15 Мартин Демикелис Манчестер Сити
16 Маркос Рохо Спортинг
17 Федерико Фернандес Наполи
23 Хосе Басанта Монтеррей
Полузащитники
5 Фернандо Гаго Бока Хуниорс
6 Лукас Билья Лацио
7 Анхель Ди Мария Реал Мадрид
8 Энцо Перес Бенфика
11 Макси Родригес Ньюэллс Олд Бойз
13 Аугусто Фернандес Сельта
14 Хавьер Маскерано Барселона
19 Рикардо Альварес Интернационале
Нападающие
9 Гонсало Игуаин Наполи
10 Лионель Месси (к) Барселона
18 Родриго Паласио Интернационале
20 Серхио Агуэро Манчестер Сити
22 Эсекьель Лавесси Пари Сен-Жермен
Главный тренер Алехандро Сабелья Аргентина
Общее
Уникальный идентификатор : 210465503491618062634735252562587433475 (0x9E562E79A2960392B0AFAD2D3FA03A03)
Формат : Matroska
Версия формата : Version 4 / Version 2
Размер файла : 3,57 Гбайт
Продолжительность : 2 ч. 0 м.
Общий поток : 4243 Кбит/сек
Дата кодирования : UTC 2014-06-25 18:28:35
Программа кодирования : mkvmerge v7.0.0 ('Where We Going') 64bit built on Jun 9 2014 15:16:27
Библиотека кодирования : libebml v1.3.0 + libmatroska v1.4.1
Видео
Идентификатор : 1
Формат : AVC
Формат/Информация : Advanced Video Codec
Профиль формата : [email protected]
Параметр CABAC формата : Да
Параметр ReFrames формата : 4 кадра
Параметр GOP формата : M=2, N=15
Идентификатор кодека : V_MPEG4/ISO/AVC
Продолжительность : 2 ч. 0 м.
Битрейт : 3967 Кбит/сек
Ширина : 1280 пикселей
Высота : 720 пикселей
Соотношение сторон : 16:9
Режим частоты кадров : Постоянный
Частота кадров : 50,000 кадров/сек
Цветовое пространство : YUV
Субдискретизация насыщенности : 4:2:0
Битовая глубина : 8 бит
Тип развёртки : Прогрессивная
Бит/(Пиксели*Кадры) : 0.086
Размер потока : 3,34 Гбайт (93%)
Default : Да
Forced : Нет
Основные цвета : BT.709
Характеристики трансфера : BT.709
Коэффициенты матрицы : BT.709
DURATION : 02:00:36.120000000
NUMBER_OF_FRAMES : 361806
NUMBER_OF_BYTES : 3661408726
_STATISTICS_WRITING_APP : mkvmerge v7.0.0 ('Where We Going') 64bit built on Jun 9 2014 15:16:27
_STATISTICS_WRITING_DATE_UTC : 2014-06-25 18:28:35
_STATISTICS_TAGS : BPS DURATION NUMBER_OF_FRAMES NUMBER_OF_BYTES
Аудио
Идентификатор : 2
Формат : AC-3
Формат/Информация : Audio Coding 3
Расширение режима : CM (complete main)
Параметр Endianness формата : Big
Идентификатор кодека : A_AC3
Продолжительность : 2 ч. 0 м.
Вид битрейта : Постоянный
Битрейт : 192 Кбит/сек
Каналы : 2 канала
Расположение каналов : Front: L R
Частота : 48,0 КГц
Битовая глубина : 16 бит
Метод сжатия : С потерями
Размер потока : 166 Мбайт (5%)
Язык : Russian
Default : Да
Forced : Нет
DURATION : 02:00:36.084000000
NUMBER_OF_FRAMES : 226125
NUMBER_OF_BYTES : 173664000
_STATISTICS_WRITING_APP : mkvmerge v7.0.0 ('Where We Going') 64bit built on Jun 9 2014 15:16:27
_STATISTICS_WRITING_DATE_UTC : 2014-06-25 18:28:35
_STATISTICS_TAGS : BPS DURATION NUMBER_OF_FRAMES NUMBER_OF_BYTES
Download / Скачать

Хотите скачать бесплатно? Зарегистрируйтесь на сайте (ссылка на регистрацию). Pirat.ca - самый быстрый торрент трекер в рунете!

Как скачивать  ·   Что такое торрент  ·   Рейтинг и ограничения

Reno-19

420

Пост 24-Окт-2014 19:04 (спустя 3 месяца 24 дня)

[Q] 

Спорт никто не любит.... ? Пиратка рулит!
[Профиль]  [ЛС] 
Показать сообщения:    
Ответить на тему

Текущее время: Сегодня 22:10

Часовой пояс: GMT + 4



Вы не можете начинать темы
Вы не можете отвечать на сообщения
Вы не можете редактировать свои сообщения
Вы не можете удалять свои сообщения
Вы не можете голосовать в опросах
Вы не можете прикреплять файлы к сообщениям
Вы не можете скачивать файлы

▼ Вниз