ML
     
  Уважаемый Гость!
Вы можете поддержать проект и зарегистрироваться у наших партнеров - онлайн-стратегия MyLands. При регистрации в игре Вы получите код, который сможете активировать после регистрации на pirat.ca и получить 1000 дублонов.

Ваш код:
5af7de75d3db09b6a37bc8bab71b0e87ccde73d6
 
     

Чемпионат Мира 2014 / FIFA 2014 / Босния и Герцеговина – Иран / Группа F. 3-й тур [25.06.2014, Спорт 1 HD, Футбол, H.264, 50fps, HDTVRip/720p]

Ответить на тему
 
Автор
Сообщение

Пост 30-Июн-2014 16:25

[Q] 

UcrusPazzo

Чемпионат Мира 2014 / FIFA 2014
Босния и Герцеговина – Иран / Группа F. 3-й тур
-Год выпуска: 25.06.2014
Вид спорта: Футбол
Участники: Босния и Герцеговина – Иран
Продолжительность: 01:39:27
Комментарий: русский (Алексей Осин)-Автор рипа / записи: Striker
-Описание:
25 июня 2014 года, среда. 20:00 мск
Группа F. 3-й тур
Стадион: Арена Фонте-Нова - Отавиу Мангабэйра (Салвадор, Бразилия) Зрителей: 48011 (вместимость – 52048)
Главный судья: Карлос Веласко Карбальо (Мадрид, Испания); Ассистент: Роберто Алонсо Фернандес (Испания); Ассистент: Хуан Юсте Хименес (Алькоркон, Испания)-Качество видео: HDTVRip
Контейнер: MKV
Видео кодек: H.264
Аудио кодек: AC3
Видео: 3986 Кбит/сек; 1280*720 (16:9); в 50,000 кадров/сек; 0.087 Бит/(Пиксели*Кадры); AVC
Аудио: 192 Кбит/сек; 48,0 КГц; 16 бит; 2 канала; АС-3
Босния и Герцеговина
Вратари

1 Асмир Бегович Сток Сити
12 Ясмин Фейзич Аален
22 Асмир Авдукич Борац
Защитники
2 Авдия Вршаевич Хайдук
3 Эрмин Бичакчич Айнтрахт (Брауншвейг)
4 Эмир Спахич (к) Байер 04
5 Сеад Колашинац Шальке 04
6 Огнен Враньеш Элязыгспор
13 Менсур Муйджа Фрайбург
15 Тони Шунич Заря
Полузащитники
7 Мухамед Бешич Ференцварош
8 Миралем Пьянич Рома
10 Звездан Мисимович Гуйчжоу Жэньхэ
14 Тино-Свен Сушич Хайдук
16 Сенад Лулич Лацио
17 Сенияд Ибричич Кайсери Эрджиесспор
18 Харис Медунянин Газиантепспор
20 Изет Хайрович Галатасарай
21 Анел Хаджич Штурм
23 Сеяд Салихович Хоффенхайм
Нападающие
9 Ведад Ибишевич Штутгарт
11 Эдин Джеко Манчестер Сити
19 Эдин Вишча Истанбул ББ
Главный тренер Сафет Сушич Босния и Герцеговина-Иран
Вратари

1 Рахман Ахмади Сепахан
12 Алиреза Хагиги Спортинг (Ковильян)
22 Даниэль Давари Айнтрахт (Брауншвейг)
Защитники
2 Хосро Хейдари Эстегляль
3 Ехсан Хаджсафи Сепахан
4 Джаляль Хоссейни Персеполис
5 Амир Хоссейн Садеги Эстегляль
13 Хоссейн Махини Персеполис
15 Педжман Монтазери Умм-Салаль
17 Ахмад Альнаме Нафт Тегеран
19 Хашем Бейкзаде Эстегляль
20 Стивен Бейташур Ванкувер Уайткэпс
23 Мехрдад Пулади Персеполис
Полузащитники
6 Джавад Некунам (к) Аль-Кувейт
7 Масуд Шоджаи Лас-Пальмас
8 Реза Хагиги Персеполис
11 Гасем Хададифар Зоб Ахан
14 Андраник Теймурян Эстегляль
18 Бахтияр Рахмани Фулад
21 Ашкан Дежага Фулхэм
Нападающие
9 Алиреза Джаханбахш НЕК
10 Карим Ансарифард Персеполис
16 Реза Гучаннеджад Чарльтон Атлетик
Главный тренер Карлуш Кейрош Португалия
Общее
Уникальный идентификатор : 204645225372191021856675549074883197412 (0x99F53C9BC7BD5ED2A0C5ABE16541B9E4)
Формат : Matroska
Версия формата : Version 4 / Version 2
Размер файла : 2,96 Гбайт
Продолжительность : 1 ч. 39 м.
Общий поток : 4263 Кбит/сек
Дата кодирования : UTC 2014-06-25 20:38:00
Программа кодирования : mkvmerge v7.0.0 ('Where We Going') 64bit built on Jun 9 2014 15:16:27
Библиотека кодирования : libebml v1.3.0 + libmatroska v1.4.1
Видео
Идентификатор : 1
Формат : AVC
Формат/Информация : Advanced Video Codec
Профиль формата : [email protected]
Параметр CABAC формата : Да
Параметр ReFrames формата : 4 кадра
Параметр GOP формата : M=2, N=15
Идентификатор кодека : V_MPEG4/ISO/AVC
Продолжительность : 1 ч. 39 м.
Битрейт : 3986 Кбит/сек
Ширина : 1280 пикселей
Высота : 720 пикселей
Соотношение сторон : 16:9
Режим частоты кадров : Постоянный
Частота кадров : 50,000 кадров/сек
Цветовое пространство : YUV
Субдискретизация насыщенности : 4:2:0
Битовая глубина : 8 бит
Тип развёртки : Прогрессивная
Бит/(Пиксели*Кадры) : 0.087
Размер потока : 2,77 Гбайт (94%)
Default : Да
Forced : Нет
Основные цвета : BT.709
Характеристики трансфера : BT.709
Коэффициенты матрицы : BT.709
DURATION : 01:39:26.760000000
NUMBER_OF_FRAMES : 298338
NUMBER_OF_BYTES : 3033999388
_STATISTICS_WRITING_APP : mkvmerge v7.0.0 ('Where We Going') 64bit built on Jun 9 2014 15:16:27
_STATISTICS_WRITING_DATE_UTC : 2014-06-25 20:38:00
_STATISTICS_TAGS : BPS DURATION NUMBER_OF_FRAMES NUMBER_OF_BYTES
Аудио
Идентификатор : 2
Формат : AC-3
Формат/Информация : Audio Coding 3
Расширение режима : CM (complete main)
Параметр Endianness формата : Big
Идентификатор кодека : A_AC3
Продолжительность : 1 ч. 39 м.
Вид битрейта : Постоянный
Битрейт : 192 Кбит/сек
Каналы : 2 канала
Расположение каналов : Front: L R
Частота : 48,0 КГц
Битовая глубина : 16 бит
Метод сжатия : С потерями
Размер потока : 137 Мбайт (5%)
Язык : Russian
Default : Да
Forced : Нет
DURATION : 01:39:26.724000000
NUMBER_OF_FRAMES : 186458
NUMBER_OF_BYTES : 143199744
_STATISTICS_WRITING_APP : mkvmerge v7.0.0 ('Where We Going') 64bit built on Jun 9 2014 15:16:27
_STATISTICS_WRITING_DATE_UTC : 2014-06-25 20:38:00
_STATISTICS_TAGS : BPS DURATION NUMBER_OF_FRAMES NUMBER_OF_BYTES
Download / Скачать

Хотите скачать бесплатно? Зарегистрируйтесь на сайте (ссылка на регистрацию). Pirat.ca - самый быстрый торрент трекер в рунете!

Как скачивать  ·   Что такое торрент  ·   Рейтинг и ограничения

Показать сообщения:    
Ответить на тему

Текущее время: Сегодня 14:14

Часовой пояс: GMT + 4



Вы не можете начинать темы
Вы не можете отвечать на сообщения
Вы не можете редактировать свои сообщения
Вы не можете удалять свои сообщения
Вы не можете голосовать в опросах
Вы не можете прикреплять файлы к сообщениям
Вы не можете скачивать файлы

▼ Вниз