ML
     
  Уважаемый Гость!
Вы можете поддержать проект и зарегистрироваться у наших партнеров - онлайн-стратегия MyLands. При регистрации в игре Вы получите код, который сможете активировать после регистрации на pirat.ca и получить 1000 дублонов.

Ваш код:
cc3be08b7507661c03e0a2f582d0da3a659ea55a
 
     

Чемпионат Мира 2014 / FIFA 2014 / Гондурас – Швейцария / Группа E. 3-й тур [26.06.2014, Спорт 1 HD, Футбол, H.264, 50fps, HDTVRip/720p]

Ответить на тему
 
Автор
Сообщение

Пост 30-Июн-2014 16:26

[Q] 

UcrusPazzo

Чемпионат Мира 2014 / FIFA 2014
Гондурас – Швейцария / Группа E. 3-й тур
-Год выпуска: 26.06.2014
Вид спорта: Футбол
Участники: Гондурас – Швейцария
Продолжительность: 01:40:13
Комментарий: русский (Александр Гришин)-Автор рипа / записи: Striker
-Описание:
26 июня 2014 года, четверг. 00:00 мск
Группа E. 3-й тур
Стадион: Арена Амазония (Манаус, Бразилия)
Главный судья: Нестор Питана (Корпус, Мисьонес, Аргентина); Ассистент: Эрнан Майдана (Буэнос-Айрес, Аргентина); Ассистент: Хуан Пабло Белатти (Аргентина)-Качество видео: HDTVRip
Контейнер: MKV
Видео кодек: H.264
Аудио кодек: AC3
Видео: 3982 Кбит/сек; 1280*720 (16:9); в 50,000 кадров/сек; 0.086 Бит/(Пиксели*Кадры); AVC
Аудио: 192 Кбит/сек; 48,0 КГц; 16 бит; 2 канала; АС-3
Гондурас
Вратари

1 Луис Лопес Реал Эспанья
18 Ноэль Вальядарес (к) Олимпия
22 Донис Эскобер Олимпия
Защитники
2 Осман Чавес Циндао Чжуннэн
3 Мейнор Фигероа Халл Сити
4 Хуан Пабло Монтес Мотагуа
5 Виктор Бернардес Сан-Хосе Эртквейкс
6 Хуан Карлос Гарсия Уиган Атлетик
7 Эмилио Исагирре Селтик
21 Брайан Бекелес Олимпия
Полузащитники
8 Уилсон Паласиос Сток Сити
10 Марио Мартинес Реал Эспанья
12 Эддер Дельгадо[13] Реал Эспанья
14 Оскар Гарсия Хьюстон Динамо
15 Роджер Эспиноса Уиган Атлетик
17 Энди Нахар Андерлехт
19 Луис Гарридо Олимпия
20 Хорхе Кларос Мотагуа
23 Марвин Чавес Чивас США
Нападающие
9 Джерри Паласиос Алахуэленсе
11 Джерри Бенгтсон Нью-Инглэнд Революшн
13 Карло Костли Реал Эспанья
16 Рони Мартинес Реал Сосьедад
Главный тренер Луис Фернандо Суарес Колумбия-Швейцария
Вратари

1 Диего Бенальо Вольфсбург
12 Янн Зоммер Базель
21 Роман Бюрки Грассхоппер
Защитники
2 Штефан Лихтштайнер Ювентус
3 Рето Циглер Сассуоло
4 Филипп Сендерос Валенсия
5 Стив фон Берген Янг Бойз
6 Михаэль Ланг Грассхоппер
13 Рикардо Родригес Вольфсбург
20 Йоан Джуру Гамбург
22 Фабиан Шер Базель
Полузащитники
7 Транквилло Барнетта Айнтрахт (Франкфурт-на-Майне)
8 Гёкхан Инлер (к) Наполи
10 Гранит Джака Боруссия (Мёнхенгладбах)
11 Валон Бехрами Наполи
14 Валентин Штокер Базель
15 Блерим Джемайли Наполи
16 Желсон Фернандеш Фрайбург
23 Джердан Шакири Бавария
Нападающие
9 Харис Сеферович Реал Сосьедад
17 Марио Гавранович Цюрих
18 Адмир Мехмеди Фрайбург
19 Йосип Дрмич Нюрнберг
Главный тренер Оттмар Хитцфельд Германия
Общее
Уникальный идентификатор : 229500800086602570706244040212651075608 (0xACA83F0E7BF5DC7D8A33576FA6026818)
Формат : Matroska
Версия формата : Version 4 / Version 2
Размер файла : 2,98 Гбайт
Продолжительность : 1 ч. 40 м.
Общий поток : 4259 Кбит/сек
Дата кодирования : UTC 2014-06-25 22:50:34
Программа кодирования : mkvmerge v7.0.0 ('Where We Going') 64bit built on Jun 9 2014 15:16:27
Библиотека кодирования : libebml v1.3.0 + libmatroska v1.4.1
Видео
Идентификатор : 1
Формат : AVC
Формат/Информация : Advanced Video Codec
Профиль формата : [email protected]
Параметр CABAC формата : Да
Параметр ReFrames формата : 4 кадра
Параметр GOP формата : M=2, N=15
Идентификатор кодека : V_MPEG4/ISO/AVC
Продолжительность : 1 ч. 40 м.
Битрейт : 3982 Кбит/сек
Ширина : 1280 пикселей
Высота : 720 пикселей
Соотношение сторон : 16:9
Режим частоты кадров : Постоянный
Частота кадров : 50,000 кадров/сек
Цветовое пространство : YUV
Субдискретизация насыщенности : 4:2:0
Битовая глубина : 8 бит
Тип развёртки : Прогрессивная
Бит/(Пиксели*Кадры) : 0.086
Размер потока : 2,79 Гбайт (94%)
Default : Да
Forced : Нет
Основные цвета : BT.709
Характеристики трансфера : BT.709
Коэффициенты матрицы : BT.709
DURATION : 01:40:12.764000000
NUMBER_OF_FRAMES : 300638
NUMBER_OF_BYTES : 3054246667
_STATISTICS_WRITING_APP : mkvmerge v7.0.0 ('Where We Going') 64bit built on Jun 9 2014 15:16:27
_STATISTICS_WRITING_DATE_UTC : 2014-06-25 22:50:34
_STATISTICS_TAGS : BPS DURATION NUMBER_OF_FRAMES NUMBER_OF_BYTES
Аудио
Идентификатор : 2
Формат : AC-3
Формат/Информация : Audio Coding 3
Расширение режима : CM (complete main)
Параметр Endianness формата : Big
Идентификатор кодека : A_AC3
Продолжительность : 1 ч. 40 м.
Вид битрейта : Постоянный
Битрейт : 192 Кбит/сек
Каналы : 2 канала
Расположение каналов : Front: L R
Частота : 48,0 КГц
Битовая глубина : 16 бит
Метод сжатия : С потерями
Размер потока : 138 Мбайт (5%)
Язык : Russian
Default : Да
Forced : Нет
DURATION : 01:40:12.728000000
NUMBER_OF_FRAMES : 187896
NUMBER_OF_BYTES : 144304128
_STATISTICS_WRITING_APP : mkvmerge v7.0.0 ('Where We Going') 64bit built on Jun 9 2014 15:16:27
_STATISTICS_WRITING_DATE_UTC : 2014-06-25 22:50:34
_STATISTICS_TAGS : BPS DURATION NUMBER_OF_FRAMES NUMBER_OF_BYTES
Download / Скачать

Хотите скачать бесплатно? Зарегистрируйтесь на сайте (ссылка на регистрацию). Pirat.ca - самый быстрый торрент трекер в рунете!

Как скачивать  ·   Что такое торрент  ·   Рейтинг и ограничения

Показать сообщения:    
Ответить на тему

Текущее время: Сегодня 05:04

Часовой пояс: GMT + 4



Вы не можете начинать темы
Вы не можете отвечать на сообщения
Вы не можете редактировать свои сообщения
Вы не можете удалять свои сообщения
Вы не можете голосовать в опросах
Вы не можете прикреплять файлы к сообщениям
Вы не можете скачивать файлы

▼ Вниз