ML
     
  Уважаемый Гость!
Вы можете поддержать проект и зарегистрироваться у наших партнеров - онлайн-стратегия MyLands. При регистрации в игре Вы получите код, который сможете активировать после регистрации на pirat.ca и получить 1000 дублонов.

Ваш код:
11f49771fdf057c9d51610e4a0925c3b46ddb655
 
     

Чемпионат Мира 2014 / FIFA 2014 / Эквадор – Франция / Группа E. 3-й тур [26.06.2014, Спорт 1 HD, Футбол, H.264, 50fps, HDTVRip/720p]

Ответить на тему
 
Автор
Сообщение

Пост 30-Июн-2014 16:27

[Q] 

UcrusPazzo

Чемпионат Мира 2014 / FIFA 2014
Эквадор – Франция / Группа E. 3-й тур
-Год выпуска: 26.06.2014
Вид спорта: Футбол
Участники: Эквадор – Франция
Продолжительность: 01:52:37
Комментарий: русский (Арташес Антонян)-Автор рипа / записи: Striker
-Описание:
26 июня 2014 года, четверг. 00:00 мск
Группа E. 3-й тур
Стадион: Маракана - Марио Филью (Рио-де-Жанейро, Бразилия)
Главный судья: Нормандьез Ду (Абиджан, Кот-д'Ивуар); Ассистент: Сонгифоло Йео (Абиджан, Кот-д'Ивуар); Ассистент: Жан-Клод Бирумушау (Бурунди)-Качество видео: HDTVRip
Контейнер: MKV
Видео кодек: H.264
Аудио кодек: AC3
Видео: 3981 Кбит/сек; 1280*720 (16:9); в 50,000 кадров/сек; 0.086 Бит/(Пиксели*Кадры); AVC
Аудио: 192 Кбит/сек; 48,0 КГц; 16 бит; 2 канала; АС-3
Эквадор
Вратари

1 Максимо Бангера Барселона (Гуаякиль)
12 Адриан Боне Эль Насьональ
22 Александер Домингес ЛДУ Кито
Защитники
2 Хорхе Гуагуа Эмелек
3 Фриксон Эрасо Фламенго
4 Хуан Паредес Барселона (Гуаякиль)
10 Вальтер Айови Пачука
18 Оскар Багуи Эмелек
21 Габриэль Ачильер Эмелек
Полузащитники
5 Ренато Ибарра Витесс
6 Кристиан Нобоа Динамо (Москва)
8 Эдисон Мендес Санта-Фе
14 Освальдо Минда[9] Чивас США
16 Антонио Валенсия (к) Манчестер Юнайтед
19 Луис Саритама Барселона (Гуаякиль)
20 Фидель Мартинес Тихуана
23 Карлос Груэсо Штутгарт
Нападающие
7 Джефферсон Монтеро Монаркас Морелия
9 Хоао Рохас Крус Асуль
11 Фелипе Кайседо Аль-Джазира
13 Эннер Валенсия Пачука
15 Майкл Арройо Атланте
17 Хайме Айови Тихуана
Главный тренер Рейнальдо Руэда Колумбия-Франция
Вратари

1 Уго Льорис (к) Тоттенхэм Хотспур
16 Стефан Руффье[10] Сент-Этьен
23 Микаэль Ландро Бастия
Защитники
2 Матьё Дебюши Ньюкасл Юнайтед
3 Патрис Эвра Манчестер Юнайтед
4 Рафаэль Варан Реал Мадрид
5 Мамаду Сако Ливерпуль
13 Эльяким Мангала Порту
15 Бакари Санья Арсенал
17 Люка Динь Пари Сен-Жермен
21 Лоран Косельни Арсенал
Полузащитники
6 Йоан Кабай Пари Сен-Жермен
7 Реми Кабелля[11] Монпелье
8 Матьё Вальбуэна Марсель
11 Антуан Гризманн Реал Сосьедад
12 Рио Мавуба Лилль
14 Блез Матюиди Пари Сен-Жермен
18 Мусса Сиссоко Ньюкасл Юнайтед
19 Поль Погба Ювентус
22 Морган Шнедерлен[12] Саутгемптон
Нападающие
9 Оливье Жиру Арсенал
10 Карим Бензема Реал Мадрид
20 Лоик Реми Ньюкасл Юнайтед
Главный тренер Дидье Дешам Франция
Общее
Уникальный идентификатор : 222861737755257961169361848338303165615 (0xA7A99C02F4B27EC48B7D799AD3C424AF)
Формат : Matroska
Версия формата : Version 4 / Version 2
Размер файла : 3,35 Гбайт
Продолжительность : 1 ч. 52 м.
Общий поток : 4258 Кбит/сек
Дата кодирования : UTC 2014-06-26 04:33:12
Программа кодирования : mkvmerge v7.0.0 ('Where We Going') 64bit built on Jun 9 2014 15:16:27
Библиотека кодирования : libebml v1.3.0 + libmatroska v1.4.1
Видео
Идентификатор : 1
Формат : AVC
Формат/Информация : Advanced Video Codec
Профиль формата : [email protected]
Параметр CABAC формата : Да
Параметр ReFrames формата : 4 кадра
Параметр GOP формата : M=2, N=15
Идентификатор кодека : V_MPEG4/ISO/AVC
Продолжительность : 1 ч. 52 м.
Битрейт : 3981 Кбит/сек
Ширина : 1280 пикселей
Высота : 720 пикселей
Соотношение сторон : 16:9
Режим частоты кадров : Постоянный
Частота кадров : 50,000 кадров/сек
Цветовое пространство : YUV
Субдискретизация насыщенности : 4:2:0
Битовая глубина : 8 бит
Тип развёртки : Прогрессивная
Бит/(Пиксели*Кадры) : 0.086
Размер потока : 3,13 Гбайт (94%)
Default : Да
Forced : Нет
Основные цвета : BT.709
Характеристики трансфера : BT.709
Коэффициенты матрицы : BT.709
DURATION : 01:52:36.760000000
NUMBER_OF_FRAMES : 337838
NUMBER_OF_BYTES : 3431575794
_STATISTICS_WRITING_APP : mkvmerge v7.0.0 ('Where We Going') 64bit built on Jun 9 2014 15:16:27
_STATISTICS_WRITING_DATE_UTC : 2014-06-26 04:33:12
_STATISTICS_TAGS : BPS DURATION NUMBER_OF_FRAMES NUMBER_OF_BYTES
Аудио
Идентификатор : 2
Формат : AC-3
Формат/Информация : Audio Coding 3
Расширение режима : CM (complete main)
Параметр Endianness формата : Big
Идентификатор кодека : A_AC3
Продолжительность : 1 ч. 52 м.
Вид битрейта : Постоянный
Битрейт : 192 Кбит/сек
Каналы : 2 канала
Расположение каналов : Front: L R
Частота : 48,0 КГц
Битовая глубина : 16 бит
Метод сжатия : С потерями
Размер потока : 155 Мбайт (5%)
Язык : Russian
Default : Да
Forced : Нет
DURATION : 01:52:36.724000000
NUMBER_OF_FRAMES : 211145
NUMBER_OF_BYTES : 162159360
_STATISTICS_WRITING_APP : mkvmerge v7.0.0 ('Where We Going') 64bit built on Jun 9 2014 15:16:27
_STATISTICS_WRITING_DATE_UTC : 2014-06-26 04:33:12
_STATISTICS_TAGS : BPS DURATION NUMBER_OF_FRAMES NUMBER_OF_BYTES
Download / Скачать

Хотите скачать бесплатно? Зарегистрируйтесь на сайте (ссылка на регистрацию). Pirat.ca - самый быстрый торрент трекер в рунете!

Как скачивать  ·   Что такое торрент  ·   Рейтинг и ограничения

Показать сообщения:    
Ответить на тему

Текущее время: Сегодня 03:10

Часовой пояс: GMT + 4



Вы не можете начинать темы
Вы не можете отвечать на сообщения
Вы не можете редактировать свои сообщения
Вы не можете удалять свои сообщения
Вы не можете голосовать в опросах
Вы не можете прикреплять файлы к сообщениям
Вы не можете скачивать файлы

▼ Вниз