ML
     
  Уважаемый Гость!
Вы можете поддержать проект и зарегистрироваться у наших партнеров - онлайн-стратегия MyLands. При регистрации в игре Вы получите код, который сможете активировать после регистрации на pirat.ca и получить 1000 дублонов.

Ваш код:
fcd618d94adc1456bccbde5047c9cd0930e4ae4d
 
     

Чемпионат Мира 2014 / FIFA 2014 / США – Германия / Группа G. 3-й тур [26.06.2014, Спорт 1 HD, Футбол, H.264, 50fps, HDTVRip/720p]

Ответить на тему
 
Автор
Сообщение

Пост 30-Июн-2014 16:28

[Q] 

UcrusPazzo

Чемпионат Мира 2014 / FIFA 2014
США – Германия / Группа G. 3-й тур
-Год выпуска: 16.06.2014
Вид спорта: Футбол
Участники: США – Германия
Продолжительность: 01:50:16
Комментарий: русский (Роман Трушечкин)-Автор рипа / записи: Striker
-Описание:
26 июня 2014 года, четверг. 20:00 мск
Группа G. 3-й тур
Стадион: Арена Пернамбуку (Ресифи, Бразилия)
Главный судья: Равшан Ирматов (Ташкент, Узбекистан); Ассистент: Абдухамидулло Расулов (Ташкент, Узбекистан); Ассистент: Бахадыр Кочкаров (Киргизия)-Качество видео: HDTVRip
Контейнер: MKV
Видео кодек: H.264
Аудио кодек: AC3
Видео: 3991 Кбит/сек; 1280*720 (16:9); в 50,000 кадров/сек; 0.087 Бит/(Пиксели*Кадры); AVC
Аудио: 192 Кбит/сек; 48,0 КГц; 16 бит; 2 канала; АС-3
США
Вратари

1 Тим Ховард Эвертон
12 Брэд Гузан Астон Вилла
22 Ник Римандо Реал Солт-Лейк
Защитники
2 Деандре Йедлин Сиэтл Саундерс
3 Омар Гонсалес Лос-Анджелес Гэлакси
5 Мэтт Беслер Спортинг Канзас-Сити
6 Джон Брукс Герта (Берлин)
7 Дамаркус Бизли Пуэбла
20 Джефф Кэмерон Сток Сити
21 Тимоти Чендлер Нюрнберг
23 Фабиан Джонсон Хоффенхайм
Полузащитники
4 Майкл Брэдли Торонто
10 Миккел Дискеруд Русенборг
11 Алехандро Бедойя Нант
13 Джермейн Джонс Бешикташ
14 Брэд Дэвис Хьюстон Динамо
15 Кайл Бекерман Реал Солт-Лейк
16 Джулиан Грин Бавария
19 Грэм Зуси Спортинг Канзас-Сити
Нападающие
8 Клинт Демпси (к) Сиэтл Саундерс
9 Арон Юханнссон АЗ
17 Джози Алтидор Сандерленд
18 Крис Вондоловски Сан-Хосе Эртквейкс
Главный тренер Юрген Клинсман Германия-Германия
Вратари

1 Мануэль Нойер Бавария
12 Рон-Роберт Цилер Ганновер 96
22 Роман Вайденфеллер Боруссия (Дортмунд)
Защитники
3 Маттиас Гинтер Фрайбург
4 Бенедикт Хёведес Шальке 04
5 Матс Хуммельс Боруссия (Дортмунд)
15 Эрик Дурм Боруссия (Дортмунд)
16 Филипп Лам (к) Бавария
17 Пер Мертезакер Арсенал
20 Жером Боатенг Бавария
21 Шкодран Мустафи[16] Сампдория
Полузащитники
2 Кевин Гросскройц Боруссия (Дортмунд)
6 Сами Хедира Реал Мадрид
7 Бастиан Швайнштайгер Бавария
8 Месут Озиль Арсенал
14 Юлиан Дракслер Шальке 04
18 Тони Кроос Бавария
19 Марио Гётце Бавария
23 Кристоф Крамер Боруссия (Мёнхенгладбах)
Нападающие
9 Андре Шюррле Челси
10 Лукас Подольски Арсенал
11 Мирослав Клозе Лацио
13 Томас Мюллер Бавария
Главный тренер Йоахим Лёв Германия
Общее
Уникальный идентификатор : 199964497920819405376003979095351779774 (0x966FC2ED785A064DA6F636D875F861BE)
Формат : Matroska
Версия формата : Version 4 / Version 2
Размер файла : 3,29 Гбайт
Продолжительность : 1 ч. 50 м.
Общий поток : 4268 Кбит/сек
Дата кодирования : UTC 2014-06-26 18:24:38
Программа кодирования : mkvmerge v7.0.0 ('Where We Going') 64bit built on Jun 9 2014 15:16:27
Библиотека кодирования : libebml v1.3.0 + libmatroska v1.4.1
Видео
Идентификатор : 1
Формат : AVC
Формат/Информация : Advanced Video Codec
Профиль формата : [email protected]
Параметр CABAC формата : Да
Параметр ReFrames формата : 4 кадра
Параметр GOP формата : M=2, N=15
Идентификатор кодека : V_MPEG4/ISO/AVC
Продолжительность : 1 ч. 50 м.
Битрейт : 3991 Кбит/сек
Ширина : 1280 пикселей
Высота : 720 пикселей
Соотношение сторон : 16:9
Режим частоты кадров : Постоянный
Частота кадров : 50,000 кадров/сек
Цветовое пространство : YUV
Субдискретизация насыщенности : 4:2:0
Битовая глубина : 8 бит
Тип развёртки : Прогрессивная
Бит/(Пиксели*Кадры) : 0.087
Размер потока : 3,07 Гбайт (94%)
Default : Да
Forced : Нет
Основные цвета : BT.709
Характеристики трансфера : BT.709
Коэффициенты матрицы : BT.709
DURATION : 01:50:15.620000000
NUMBER_OF_FRAMES : 330781
NUMBER_OF_BYTES : 3367819809
_STATISTICS_WRITING_APP : mkvmerge v7.0.0 ('Where We Going') 64bit built on Jun 9 2014 15:16:27
_STATISTICS_WRITING_DATE_UTC : 2014-06-26 18:24:38
_STATISTICS_TAGS : BPS DURATION NUMBER_OF_FRAMES NUMBER_OF_BYTES
Аудио
Идентификатор : 2
Формат : AC-3
Формат/Информация : Audio Coding 3
Расширение режима : CM (complete main)
Параметр Endianness формата : Big
Идентификатор кодека : A_AC3
Продолжительность : 1 ч. 50 м.
Вид битрейта : Постоянный
Битрейт : 192 Кбит/сек
Каналы : 2 канала
Расположение каналов : Front: L R
Частота : 48,0 КГц
Битовая глубина : 16 бит
Метод сжатия : С потерями
Размер потока : 151 Мбайт (4%)
Язык : Russian
Default : Да
Forced : Нет
DURATION : 01:50:15.584000000
NUMBER_OF_FRAMES : 206733
NUMBER_OF_BYTES : 158770944
_STATISTICS_WRITING_APP : mkvmerge v7.0.0 ('Where We Going') 64bit built on Jun 9 2014 15:16:27
_STATISTICS_WRITING_DATE_UTC : 2014-06-26 18:24:38
_STATISTICS_TAGS : BPS DURATION NUMBER_OF_FRAMES NUMBER_OF_BYTES
Download / Скачать

Хотите скачать бесплатно? Зарегистрируйтесь на сайте (ссылка на регистрацию). Pirat.ca - самый быстрый торрент трекер в рунете!

Как скачивать  ·   Что такое торрент  ·   Рейтинг и ограничения

Показать сообщения:    
Ответить на тему

Текущее время: Сегодня 12:51

Часовой пояс: GMT + 4



Вы не можете начинать темы
Вы не можете отвечать на сообщения
Вы не можете редактировать свои сообщения
Вы не можете удалять свои сообщения
Вы не можете голосовать в опросах
Вы не можете прикреплять файлы к сообщениям
Вы не можете скачивать файлы

▼ Вниз