ML
     
  Уважаемый Гость!
Вы можете поддержать проект и зарегистрироваться у наших партнеров - онлайн-стратегия MyLands. При регистрации в игре Вы получите код, который сможете активировать после регистрации на pirat.ca и получить 1000 дублонов.

Ваш код:
11f49771fdf057c9d51610e4a0925c3b46ddb655
 
     

Чемпионат Мира 2014 / FIFA 2014 / Португалия – Гана / Группа G. 3-й тур [26.06.2014, Спорт 1 HD, Футбол, H.264, 50fps, HDTVRip/720p]

Ответить на тему
 
Автор
Сообщение

Пост 30-Июн-2014 16:29

[Q] 

UcrusPazzo

Чемпионат Мира 2014 / FIFA 2014
Португалия – Гана / Группа G. 3-й тур
-Год выпуска: 26.06.2014
Вид спорта: Футбол
Участники: Португалия – Гана
Продолжительность: 01:51:00
Комментарий: русский (Юрий Розанов)-Автор рипа / записи: Striker
-Описание:
26 июня 2014 года, четверг. 20:00 мск
Группа G. 3-й тур
Стадион: Манэ Гарринча - Национальный (Бразилиа, Бразилия) Зрителей: 67540 (вместимость – 69432)
Главный судья: Наваф Шукралла (Манама, Бахрейн); Ассистент: Ясер Тулефат (Бахрейн); Ассистент: Эбрахим Салех (Бахрейн)-Качество видео: HDTVRip
Контейнер: MKV
Видео кодек: H.264
Аудио кодек: AC3
Видео: 3960 Кбит/сек; 1280*720 (16:9); в 50,000 кадров/сек; 0.086 Бит/(Пиксели*Кадры); AVC
Аудио: 192 Кбит/сек; 48,0 КГц; 16 бит; 2 канала; АС-3
Португалия
Вратари

1 Эдуарду Брага
12 Руй Патрисиу Спортинг
22 Бету Севилья
Защитники
2 Бруну Алвеш Фенербахче
3 Пепе Реал Мадрид
5 Фабиу Коэнтрау Реал Мадрид
13 Рикарду Кошта Валенсия
14 Нету Зенит (Санкт-Петербург)
19 Андре Алмейда Бенфика
21 Жуан Перейра Валенсия
Полузащитники
4 Мигел Велозу Динамо (Киев)
6 Вильям Карвалью Спортинг
8 Жоау Моутинью Монако
10 Виейринья Вольфсбург
15 Рафа Силва Брага
16 Раул Мейрелиш Фенербахче
17 Нани Манчестер Юнайтед
18 Силвестре Варела Порту
20 Рубен Аморим Бенфика
Нападающие
7 Криштиану Роналду (к) Реал Мадрид
9 Угу Алмейда Бешикташ
11 Эдер Брага
23 Элдер Поштига Лацио
Главный тренер Паулу Бенту Португалия-Гана
Вратари

1 Стивен Адамс Адуана Старз
12 Адам Куараси Стрёмсгодсет
16 Фатау Дауда Орландо Пайретс
Защитники
2 Самуэль Инкум Платаниас
4 Даниэль Опаре Стандард
15 Рашид Сумайла Мамелоди Сандаунз
19 Джонатан Менса Эвиан
21 Джон Бой Ренн
23 Харрисон Аффул Эсперанс (Тунис)
Полузащитники
5 Майкл Эссьен Милан
6 Африйе Аква Парма
7 Кристиан Атсу Витесс
8 Эммануэль Агеманг-Баду Удинезе
9 Кевин-Принс Боатенг Шальке 04
10 Андре Айю Марсель
11 Салли Мунтари Милан
14 Альберт Адома Мидлсбро
17 Мохаммед Рабиу Кубань
20 Квадво Асамоа Ювентус
22 Вакасо Мубарак Рубин
Нападающие
3 Асамоа Гьян (к) Аль-Айн
13 Джордан Айю Сошо
18 Маджид Уорис Валансьен[17]
Главный тренер Джеймс Квеси Аппиа Гана
Общее
Уникальный идентификатор : 227521485582486163671075803009439225705 (0xAB2B0B512E67C26EB829793C4F83D769)
Формат : Matroska
Версия формата : Version 4 / Version 2
Размер файла : 3,28 Гбайт
Продолжительность : 1 ч. 51 м.
Общий поток : 4236 Кбит/сек
Дата кодирования : UTC 2014-06-27 15:20:48
Программа кодирования : mkvmerge v7.0.0 ('Where We Going') 64bit built on Jun 9 2014 15:16:27
Библиотека кодирования : libebml v1.3.0 + libmatroska v1.4.1
Видео
Идентификатор : 1
Формат : AVC
Формат/Информация : Advanced Video Codec
Профиль формата : [email protected]
Параметр CABAC формата : Да
Параметр ReFrames формата : 4 кадра
Параметр GOP формата : M=2, N=15
Идентификатор кодека : V_MPEG4/ISO/AVC
Продолжительность : 1 ч. 51 м.
Битрейт : 3960 Кбит/сек
Ширина : 1280 пикселей
Высота : 720 пикселей
Соотношение сторон : 16:9
Режим частоты кадров : Постоянный
Частота кадров : 50,000 кадров/сек
Цветовое пространство : YUV
Субдискретизация насыщенности : 4:2:0
Битовая глубина : 8 бит
Тип развёртки : Прогрессивная
Бит/(Пиксели*Кадры) : 0.086
Размер потока : 3,07 Гбайт (93%)
Default : Да
Forced : Нет
Основные цвета : BT.709
Характеристики трансфера : BT.709
Коэффициенты матрицы : BT.709
DURATION : 01:51:00.220000000
NUMBER_OF_FRAMES : 333011
NUMBER_OF_BYTES : 3364124487
_STATISTICS_WRITING_APP : mkvmerge v7.0.0 ('Where We Going') 64bit built on Jun 9 2014 15:16:27
_STATISTICS_WRITING_DATE_UTC : 2014-06-27 15:20:48
_STATISTICS_TAGS : BPS DURATION NUMBER_OF_FRAMES NUMBER_OF_BYTES
Аудио
Идентификатор : 2
Формат : AC-3
Формат/Информация : Audio Coding 3
Расширение режима : CM (complete main)
Параметр Endianness формата : Big
Идентификатор кодека : A_AC3
Продолжительность : 1 ч. 51 м.
Вид битрейта : Постоянный
Битрейт : 192 Кбит/сек
Каналы : 2 канала
Расположение каналов : Front: L R
Частота : 48,0 КГц
Битовая глубина : 16 бит
Метод сжатия : С потерями
Размер потока : 152 Мбайт (5%)
Язык : Russian
Default : Да
Forced : Нет
DURATION : 01:51:00.184000000
NUMBER_OF_FRAMES : 208128
NUMBER_OF_BYTES : 159842304
_STATISTICS_WRITING_APP : mkvmerge v7.0.0 ('Where We Going') 64bit built on Jun 9 2014 15:16:27
_STATISTICS_WRITING_DATE_UTC : 2014-06-27 15:20:48
_STATISTICS_TAGS : BPS DURATION NUMBER_OF_FRAMES NUMBER_OF_BYTES
Download / Скачать

Хотите скачать бесплатно? Зарегистрируйтесь на сайте (ссылка на регистрацию). Pirat.ca - самый быстрый торрент трекер в рунете!

Как скачивать  ·   Что такое торрент  ·   Рейтинг и ограничения

Показать сообщения:    
Ответить на тему

Текущее время: Сегодня 03:10

Часовой пояс: GMT + 4



Вы не можете начинать темы
Вы не можете отвечать на сообщения
Вы не можете редактировать свои сообщения
Вы не можете удалять свои сообщения
Вы не можете голосовать в опросах
Вы не можете прикреплять файлы к сообщениям
Вы не можете скачивать файлы

▼ Вниз