ML
     
  Уважаемый Гость!
Вы можете поддержать проект и зарегистрироваться у наших партнеров - онлайн-стратегия MyLands. При регистрации в игре Вы получите код, который сможете активировать после регистрации на pirat.ca и получить 1000 дублонов.

Ваш код:
ba41f7961e0b4717aed6a401d955262223b8f6c4
 
     

Чемпионат Мира 2014 / FIFA 2014 / Южная Корея (Республика Корея) – Бельгия / Группа H. 3-й тур [27.06.2014, Спорт 1 HD, Футбол, H.264, 50fps, HDTVRip/720p]

Ответить на тему
 
Автор
Сообщение

Пост 30-Июн-2014 16:29

[Q] 

UcrusPazzo

Чемпионат Мира 2014 / FIFA 2014
Южная Корея (Республика Корея) – Бельгия / Группа H. 3-й тур
-Год выпуска: 27.06.2014
Вид спорта: Футбол
Участники: Южная Корея (Республика Корея) – Бельгия
Продолжительность: 01:47:57
Комментарий: русский (Владимир Стогниенко)-Автор рипа / записи: Striker
-Описание:
27 июня 2014 года, пятница. 00:00 мск
Группа H. 3-й тур
Стадион: Арена Сан-Паулу - Коринтианс (Сан-Паулу, Бразилия) Зрителей: 61397 (вместимость – 65807)
Главный судья: Бенджамин Уильямс (Канберра, Австралия); Ассистент: Мэттью Крим (Австралия); Ассистент: Хакан Аназ (Мельбурн, Австралия)-Качество видео: HDTVRip
Контейнер: MKV
Видео кодек: H.264
Аудио кодек: AC3
Видео: 4040 Кбит/сек; 1280*720 (16:9); в 50,000 кадров/сек; 0.088 Бит/(Пиксели*Кадры); AVC
Аудио: 192 Кбит/сек; 48,0 КГц; 16 бит; 2 канала; АС-3
Республика Корея
Вратари

1 Чон Сон Рён Сувон Блюуингз
21 Ким Сын Гю Ульсан Хёндэ
23 Ли Бом Ён Пусан Ай Парк
Защитники
2 Ким Чхан Су Касива Рейсол
3 Юн Сок Ён Куинз Парк Рейнджерс
4 Квак Тхэ Хви Аль-Хиляль (Эр-Рияд)
5 Ким Ён Гвон Гуанчжоу Эвергранд
6 Хван Сок Хо Санфречче Хиросима
12 Ли Ён Ульсан Хёндэ
20 Хон Ён Хо Аугсбург
22 Пак Чу Хо[20] Майнц 05
Полузащитники
7 Ким Бо Гён Кардифф Сити
8 Ха Дэ Сон Бэйцзин Гоань
13 Ку Джа Чхоль (к) Майнц 05
14 Хан Гук Ён Касива Рейсол
15 Пак Чон У Гуанчжоу Фули
16 Ки Сон Ён Сандерленд
17 Ли Чхон Ён Болтон Уондерерс
Нападающие
9 Сон Хын Мин Байер 04
10 Пак Чу Ён Уотфорд
11 Ли Гын Хо Санджу Санму
18 Ким Син Ук Ульсан Хёндэ
19 Чи Дон Вон Аугсбург
Главный тренер Хон Мён Бо Республика Корея-Бельгия
Вратари

1 Тибо Куртуа Атлетико Мадрид
12 Симон Миньоле Ливерпуль
13 Сэмми Боссют Зюлте-Варегем
Защитники
2 Тоби Алдервейрелд Атлетико Мадрид
3 Томас Вермален Арсенал
4 Венсан Компани (к) Манчестер Сити
5 Ян Вертонген Тоттенхэм Хотспур
15 Даниэль ван Бюйтен Бавария
18 Николас Ломбертс Зенит (Санкт-Петербург)
21 Энтони Ванден Борре Андерлехт
23 Лоран Симан Стандард
Полузащитники
6 Аксель Витсель Зенит (Санкт-Петербург)
7 Кевин де Брёйне Вольфсбург
8 Маруан Феллайни Манчестер Юнайтед
10 Эден Азар Челси
11 Кевин Миральяс Эвертон
16 Стивен Дефур Порту
19 Мусса Дембеле Тоттенхэм Хотспур
20 Аднан Янузай Манчестер Юнайтед
22 Насер Шадли Тоттенхэм Хотспур
Нападающие
9 Ромелу Лукаку Эвертон
14 Дрис Мертенс Наполи
17 Дивок Ориджи Лилль
Главный тренер Марк Вильмотс Бельгия
Общее
Уникальный идентификатор : 186996260287782851315284731817830252723 (0x8CAE2B729DF59F42A550328155F200B3)
Формат : Matroska
Версия формата : Version 4 / Version 2
Размер файла : 3,26 Гбайт
Продолжительность : 1 ч. 47 м.
Общий поток : 4318 Кбит/сек
Дата кодирования : UTC 2014-06-27 13:40:58
Программа кодирования : mkvmerge v7.0.0 ('Where We Going') 64bit built on Jun 9 2014 15:16:27
Библиотека кодирования : libebml v1.3.0 + libmatroska v1.4.1
Видео
Идентификатор : 1
Формат : AVC
Формат/Информация : Advanced Video Codec
Профиль формата : [email protected]
Параметр CABAC формата : Да
Параметр ReFrames формата : 4 кадра
Параметр GOP формата : M=2, N=15
Идентификатор кодека : V_MPEG4/ISO/AVC
Продолжительность : 1 ч. 47 м.
Битрейт : 4040 Кбит/сек
Ширина : 1280 пикселей
Высота : 720 пикселей
Соотношение сторон : 16:9
Режим частоты кадров : Постоянный
Частота кадров : 50,000 кадров/сек
Цветовое пространство : YUV
Субдискретизация насыщенности : 4:2:0
Битовая глубина : 8 бит
Тип развёртки : Прогрессивная
Бит/(Пиксели*Кадры) : 0.088
Размер потока : 3,05 Гбайт (94%)
Default : Да
Forced : Нет
Основные цвета : BT.709
Характеристики трансфера : BT.709
Коэффициенты матрицы : BT.709
DURATION : 01:47:57.320000000
NUMBER_OF_FRAMES : 323866
NUMBER_OF_BYTES : 3337946609
_STATISTICS_WRITING_APP : mkvmerge v7.0.0 ('Where We Going') 64bit built on Jun 9 2014 15:16:27
_STATISTICS_WRITING_DATE_UTC : 2014-06-27 13:40:58
_STATISTICS_TAGS : BPS DURATION NUMBER_OF_FRAMES NUMBER_OF_BYTES
Аудио
Идентификатор : 2
Формат : AC-3
Формат/Информация : Audio Coding 3
Расширение режима : CM (complete main)
Параметр Endianness формата : Big
Идентификатор кодека : A_AC3
Продолжительность : 1 ч. 47 м.
Вид битрейта : Постоянный
Битрейт : 192 Кбит/сек
Каналы : 2 канала
Расположение каналов : Front: L R
Частота : 48,0 КГц
Битовая глубина : 16 бит
Метод сжатия : С потерями
Размер потока : 148 Мбайт (4%)
Язык : Russian
Default : Да
Forced : Нет
DURATION : 01:47:57.284000000
NUMBER_OF_FRAMES : 202412
NUMBER_OF_BYTES : 155452416
_STATISTICS_WRITING_APP : mkvmerge v7.0.0 ('Where We Going') 64bit built on Jun 9 2014 15:16:27
_STATISTICS_WRITING_DATE_UTC : 2014-06-27 13:40:58
_STATISTICS_TAGS : BPS DURATION NUMBER_OF_FRAMES NUMBER_OF_BYTES
Download / Скачать

Хотите скачать бесплатно? Зарегистрируйтесь на сайте (ссылка на регистрацию). Pirat.ca - самый быстрый торрент трекер в рунете!

Как скачивать  ·   Что такое торрент  ·   Рейтинг и ограничения

Показать сообщения:    
Ответить на тему

Текущее время: Сегодня 14:47

Часовой пояс: GMT + 4



Вы не можете начинать темы
Вы не можете отвечать на сообщения
Вы не можете редактировать свои сообщения
Вы не можете удалять свои сообщения
Вы не можете голосовать в опросах
Вы не можете прикреплять файлы к сообщениям
Вы не можете скачивать файлы

▼ Вниз