ML
     
  Уважаемый Гость!
Вы можете поддержать проект и зарегистрироваться у наших партнеров - онлайн-стратегия MyLands. При регистрации в игре Вы получите код, который сможете активировать после регистрации на pirat.ca и получить 1000 дублонов.

Ваш код:
c3360d664ceb84802c84b88ed062a5d134e2ba97
 
     

Чемпионат Мира 2014 / FIFA 2014 / Алжир – Россия / Группа H. 3-й тур [27.06.2014, Спорт 1 HD, Футбол, H.264, 50fps, HDTVRip/720p]

Ответить на тему
 
Автор
Сообщение

Пост 30-Июн-2014 16:30

[Q] 

UcrusPazzo

Чемпионат Мира 2014 / FIFA 2014
Алжир – Россия / Группа H. 3-й тур
-Год выпуска: 27.06.2014
Вид спорта: Футбол
Участники: Алжир – Россия
Продолжительность: 01:51:09
Комментарий: русский (Юрий Розанов)-Автор рипа / записи: Striker
-Описание:
27 июня 2014 года, пятница. 00:00 мск
Группа H. 3-й тур
Стадион: Арена Байшада (Куритиба, Бразилия)
Главный судья: Джюнейт Чакыр (Стамбул, Турция); Ассистент: Бахаттин Дуран (Стамбул, Турция); Ассистент: Тарык Онгун (Стамбул, Турция)-Качество видео: HDTVRip
Контейнер: MKV
Видео кодек: H.264
Аудио кодек: AC3
Видео: 3982 Кбит/сек; 1280*720 (16:9); в 50,000 кадров/сек; 0.086 Бит/(Пиксели*Кадры); AVC
Аудио: 192 Кбит/сек; 48,0 КГц; 16 бит; 2 канала; АС-3
Алжир
Вратари

1 Седрик Си Мохамед КС Константина
16 Мохамед Земмамуш УСМ Алжир
23 Раис М’Боли ЦСКА (София)
Защитники
2 Маджид Бугерра (к) Лехвия
3 Фаузи Гулам Наполи
4 Эссаид Белькалем Уотфорд
5 Рафик Халиш Академика
6 Джамель Месбах Ливорно
12 Карл Меджани Валансьен
17 Лиассин Кадамуро-Бентаиба Мальорка
20 Аисса Манди Реймс
Полузащитники
7 Хассан Йебда Удинезе
8 Мехди Ласен Хетафе
10 Софиан Фегули Валенсия
11 Ясин Брахими Гранада
14 Набиль Бенталеб Тоттенхэм Хотспур
18 Абдельмумен Джабу Клуб Африкэн
19 Сафир Тайдер Интернационале
21 Рияд Махрез Лестер Сити
22 Мехди Мостефа Аяччо
Нападающие
9 Набиль Гиля Порту
13 Ислам Слимани Спортинг (Лиссабон)
15 Эль-Арби Хиллел Судани Динамо (Загреб)
Главный тренер Вахид Халилходжич Босния и Герцеговина-Россия
Вратари

1 Игорь Акинфеев ЦСКА (Москва)
12 Юрий Лодыгин Зенит (Санкт-Петербург)
16 Сергей Рыжиков Рубин
Защитники
2 Алексей Козлов Динамо (Москва)
3 Георгий Щенников ЦСКА (Москва)
4 Сергей Игнашевич ЦСКА (Москва)
5 Андрей Семёнов Терек
13 Владимир Гранат Динамо (Москва)
14 Василий Березуцкий (к) ЦСКА (Москва)
22 Андрей Ещенко Анжи
23 Дмитрий Комбаров Спартак (Москва)
Полузащитники
7 Игорь Денисов Динамо (Москва)
8 Денис Глушаков Спартак (Москва)
10 Алан Дзагоев ЦСКА (Москва)
15 Павел Могилевец[18] Рубин
17 Олег Шатов Зенит (Санкт-Петербург)
18 Юрий Жирков Динамо (Москва)
19 Александр Самедов Локомотив (Москва)
20 Виктор Файзулин Зенит (Санкт-Петербург)
21 Алексей Ионов Динамо (Москва)
Нападающие
6 Максим Канунников Амкар[19]
9 Александр Кокорин Динамо (Москва)
11 Александр Кержаков Зенит (Санкт-Петербург)
Главный тренер Фабио Капелло Италия
Общее
Уникальный идентификатор : 177077414703685992866384937104479732825 (0x8537DE9A847D7D39A57798BB1EA9C459)
Формат : Matroska
Версия формата : Version 4 / Version 2
Размер файла : 3,31 Гбайт
Продолжительность : 1 ч. 51 м.
Общий поток : 4259 Кбит/сек
Дата кодирования : UTC 2014-06-26 22:21:10
Программа кодирования : mkvmerge v7.0.0 ('Where We Going') 64bit built on Jun 9 2014 15:16:27
Библиотека кодирования : libebml v1.3.0 + libmatroska v1.4.1
Видео
Идентификатор : 1
Формат : AVC
Формат/Информация : Advanced Video Codec
Профиль формата : [email protected]
Параметр CABAC формата : Да
Параметр ReFrames формата : 4 кадра
Параметр GOP формата : M=2, N=15
Идентификатор кодека : V_MPEG4/ISO/AVC
Продолжительность : 1 ч. 51 м.
Битрейт : 3982 Кбит/сек
Ширина : 1280 пикселей
Высота : 720 пикселей
Соотношение сторон : 16:9
Режим частоты кадров : Постоянный
Частота кадров : 50,000 кадров/сек
Цветовое пространство : YUV
Субдискретизация насыщенности : 4:2:0
Битовая глубина : 8 бит
Тип развёртки : Прогрессивная
Бит/(Пиксели*Кадры) : 0.086
Размер потока : 3,09 Гбайт (94%)
Default : Да
Forced : Нет
Основные цвета : BT.709
Характеристики трансфера : BT.709
Коэффициенты матрицы : BT.709
DURATION : 01:51:09.260000000
NUMBER_OF_FRAMES : 333463
NUMBER_OF_BYTES : 3387745477
_STATISTICS_WRITING_APP : mkvmerge v7.0.0 ('Where We Going') 64bit built on Jun 9 2014 15:16:27
_STATISTICS_WRITING_DATE_UTC : 2014-06-26 22:21:10
_STATISTICS_TAGS : BPS DURATION NUMBER_OF_FRAMES NUMBER_OF_BYTES
Аудио
Идентификатор : 2
Формат : AC-3
Формат/Информация : Audio Coding 3
Расширение режима : CM (complete main)
Параметр Endianness формата : Big
Идентификатор кодека : A_AC3
Продолжительность : 1 ч. 51 м.
Вид битрейта : Постоянный
Битрейт : 192 Кбит/сек
Каналы : 2 канала
Расположение каналов : Front: L R
Частота : 48,0 КГц
Битовая глубина : 16 бит
Метод сжатия : С потерями
Размер потока : 153 Мбайт (5%)
Язык : Russian
Default : Да
Forced : Нет
DURATION : 01:51:09.224000000
NUMBER_OF_FRAMES : 208411
NUMBER_OF_BYTES : 160059648
_STATISTICS_WRITING_APP : mkvmerge v7.0.0 ('Where We Going') 64bit built on Jun 9 2014 15:16:27
_STATISTICS_WRITING_DATE_UTC : 2014-06-26 22:21:10
_STATISTICS_TAGS : BPS DURATION NUMBER_OF_FRAMES NUMBER_OF_BYTES
Download / Скачать

Хотите скачать бесплатно? Зарегистрируйтесь на сайте (ссылка на регистрацию). Pirat.ca - самый быстрый торрент трекер в рунете!

Как скачивать  ·   Что такое торрент  ·   Рейтинг и ограничения

Tapac84

Корсар

Пост 01-Июл-2014 23:54 (спустя 1 день 7 часов)

[Q] 

можно и ещё раз посмотреть )))
[Профиль]  [ЛС] 

KoNiaL_KCC

Гроза морей

Пост 09-Июл-2014 23:03 (спустя 7 дней)

[Q] 

Трафик потрачен зря! да уж игра сборной россии ...
[Профиль]  [ЛС] 
Показать сообщения:    
Ответить на тему

Текущее время: Сегодня 10:09

Часовой пояс: GMT + 4



Вы не можете начинать темы
Вы не можете отвечать на сообщения
Вы не можете редактировать свои сообщения
Вы не можете удалять свои сообщения
Вы не можете голосовать в опросах
Вы не можете прикреплять файлы к сообщениям
Вы не можете скачивать файлы

▼ Вниз