ML
     
  Уважаемый Гость!
Вы можете поддержать проект и зарегистрироваться у наших партнеров - онлайн-стратегия MyLands. При регистрации в игре Вы получите код, который сможете активировать после регистрации на pirat.ca и получить 1000 дублонов.

Ваш код:
34514219cfad5497a1822ecc1269bea77988f9aa
 
     

Чемпионат Мира 2014 / FIFA 2014 / Гондурас – Эквадор / Группа E. 2-й тур [21.06.2014, Спорт 1 HD, Футбол, H.264, 50fps, HDTVRip/720p]

Ответить на тему
 
Автор
Сообщение

Пост 30-Июн-2014 17:26

[Q] 

UcrusPazzo

Чемпионат Мира 2014 / FIFA 2014
Гондурас – Эквадор / Группа E. 2-й тур
-Год выпуска: 21.06.2014
Вид спорта: Футбол
Участники: Гондурас – Эквадор
Продолжительность: 01:54:51
Комментарий: русский (Алексей Осин)-Автор рипа / записи: Striker
-Описание:
21 июня 2014 года, суббота. 02:00 мск
Группа E. 2-й тур
Стадион: Арена Байшада (Куритиба, Бразилия)
Главный судья: Бенджамин Уильямс (Канберра, Австралия); Ассистент: Мэттью Крим (Австралия); Ассистент: Хакан Аназ (Мельбурн, Австралия)-Качество видео: HDTVRip
Контейнер: MKV
Видео кодек: H.264
Аудио кодек: AC3
Видео: 3991 Кбит/сек; 1280*720 (16:9); в 50,000 кадров/сек; 0.087 Бит/(Пиксели*Кадры); AVC
Аудио: 192 Кбит/сек; 48,0 КГц; 16 бит; 2 канала; АС-3
Гондурас
Вратари

1 Луис Лопес Реал Эспанья
18 Ноэль Вальядарес (к) Олимпия
22 Донис Эскобер Олимпия
Защитники
2 Осман Чавес Циндао Чжуннэн
3 Мейнор Фигероа Халл Сити
4 Хуан Пабло Монтес Мотагуа
5 Виктор Бернардес Сан-Хосе Эртквейкс
6 Хуан Карлос Гарсия Уиган Атлетик
7 Эмилио Исагирре Селтик
21 Брайан Бекелес Олимпия
Полузащитники
8 Уилсон Паласиос Сток Сити
10 Марио Мартинес Реал Эспанья
12 Эддер Дельгадо[13] Реал Эспанья
14 Оскар Гарсия Хьюстон Динамо
15 Роджер Эспиноса Уиган Атлетик
17 Энди Нахар Андерлехт
19 Луис Гарридо Олимпия
20 Хорхе Кларос Мотагуа
23 Марвин Чавес Чивас США
Нападающие
9 Джерри Паласиос Алахуэленсе
11 Джерри Бенгтсон Нью-Инглэнд Революшн
13 Карло Костли Реал Эспанья
16 Рони Мартинес Реал Сосьедад
Главный тренер Луис Фернандо Суарес Колумбия-Эквадор
Вратари

1 Максимо Бангера Барселона (Гуаякиль)
12 Адриан Боне Эль Насьональ
22 Александер Домингес ЛДУ Кито
Защитники
2 Хорхе Гуагуа Эмелек
3 Фриксон Эрасо Фламенго
4 Хуан Паредес Барселона (Гуаякиль)
10 Вальтер Айови Пачука
18 Оскар Багуи Эмелек
21 Габриэль Ачильер Эмелек
Полузащитники
5 Ренато Ибарра Витесс
6 Кристиан Нобоа Динамо (Москва)
8 Эдисон Мендес Санта-Фе
14 Освальдо Минда[9] Чивас США
16 Антонио Валенсия (к) Манчестер Юнайтед
19 Луис Саритама Барселона (Гуаякиль)
20 Фидель Мартинес Тихуана
23 Карлос Груэсо Штутгарт
Нападающие
7 Джефферсон Монтеро Монаркас Морелия
9 Хоао Рохас Крус Асуль
11 Фелипе Кайседо Аль-Джазира
13 Эннер Валенсия Пачука
15 Майкл Арройо Атланте
17 Хайме Айови Тихуана
Главный тренер Рейнальдо Руэда Колумбия
Общее
Уникальный идентификатор : 202161255776663613775427190039683575422 (0x9816D773B8B5E99FA37C180CB2C8AE7E)
Формат : Matroska
Версия формата : Version 4 / Version 2
Размер файла : 3,42 Гбайт
Продолжительность : 1 ч. 54 м.
Общий поток : 4268 Кбит/сек
Дата кодирования : UTC 2014-06-21 00:22:29
Программа кодирования : mkvmerge v7.0.0 ('Where We Going') 64bit built on Jun 9 2014 15:16:27
Библиотека кодирования : libebml v1.3.0 + libmatroska v1.4.1
Видео
Идентификатор : 1
Формат : AVC
Формат/Информация : Advanced Video Codec
Профиль формата : [email protected]
Параметр CABAC формата : Да
Параметр ReFrames формата : 4 кадра
Параметр GOP формата : M=2, N=15
Идентификатор кодека : V_MPEG4/ISO/AVC
Продолжительность : 1 ч. 54 м.
Битрейт : 3991 Кбит/сек
Ширина : 1280 пикселей
Высота : 720 пикселей
Соотношение сторон : 16:9
Режим частоты кадров : Постоянный
Частота кадров : 50,000 кадров/сек
Цветовое пространство : YUV
Субдискретизация насыщенности : 4:2:0
Битовая глубина : 8 бит
Тип развёртки : Прогрессивная
Бит/(Пиксели*Кадры) : 0.087
Размер потока : 3,20 Гбайт (94%)
Default : Да
Forced : Нет
Основные цвета : BT.709
Характеристики трансфера : BT.709
Коэффициенты матрицы : BT.709
DURATION : 01:54:50.600000000
NUMBER_OF_FRAMES : 344530
NUMBER_OF_BYTES : 3507582467
_STATISTICS_WRITING_APP : mkvmerge v7.0.0 ('Where We Going') 64bit built on Jun 9 2014 15:16:27
_STATISTICS_WRITING_DATE_UTC : 2014-06-21 00:22:29
_STATISTICS_TAGS : BPS DURATION NUMBER_OF_FRAMES NUMBER_OF_BYTES
Аудио
Идентификатор : 2
Формат : AC-3
Формат/Информация : Audio Coding 3
Расширение режима : CM (complete main)
Параметр Endianness формата : Big
Идентификатор кодека : A_AC3
Продолжительность : 1 ч. 54 м.
Вид битрейта : Постоянный
Битрейт : 192 Кбит/сек
Каналы : 2 канала
Расположение каналов : Front: L R
Частота : 48,0 КГц
Битовая глубина : 16 бит
Метод сжатия : С потерями
Размер потока : 158 Мбайт (4%)
Язык : Russian
Default : Да
Forced : Нет
DURATION : 01:54:50.564000000
NUMBER_OF_FRAMES : 215328
NUMBER_OF_BYTES : 165371904
_STATISTICS_WRITING_APP : mkvmerge v7.0.0 ('Where We Going') 64bit built on Jun 9 2014 15:16:27
_STATISTICS_WRITING_DATE_UTC : 2014-06-21 00:22:29
_STATISTICS_TAGS : BPS DURATION NUMBER_OF_FRAMES NUMBER_OF_BYTES
Download / Скачать

Хотите скачать бесплатно? Зарегистрируйтесь на сайте (ссылка на регистрацию). Pirat.ca - самый быстрый торрент трекер в рунете!

Как скачивать  ·   Что такое торрент  ·   Рейтинг и ограничения

Показать сообщения:    
Ответить на тему

Текущее время: Сегодня 07:48

Часовой пояс: GMT + 4



Вы не можете начинать темы
Вы не можете отвечать на сообщения
Вы не можете редактировать свои сообщения
Вы не можете удалять свои сообщения
Вы не можете голосовать в опросах
Вы не можете прикреплять файлы к сообщениям
Вы не можете скачивать файлы

▼ Вниз